<?xml version="1.0" standalone="no"?>
<!DOCTYPE svg PUBLIC "-//W3C//DTD SVG 1.1//EN" "http://www.w3.org/Graphics/SVG/1.1/DTD/svg11.dtd" >
<svg xmlns="http://www.w3.org/2000/svg" xmlns:xlink="http://www.w3.org/1999/xlink" version="1.1">
<metadata>
Created by FontForge 20170910 at Fri Sep  7 15:55:45 2018
 By Jimmy Wärting
Copyright 2018 The KoHo Project Authors (https://github.com/cadsondemak/Koho)
</metadata>
<defs>
<font id="KoHo-Regular" horiz-adv-x="0" >
  <font-face 
    font-family="KoHo"
    font-weight="400"
    font-stretch="normal"
    units-per-em="1000"
    panose-1="0 0 5 0 0 0 0 0 0 0"
    ascent="800"
    descent="-200"
    x-height="470"
    cap-height="700"
    bbox="-605 -461 1247 1135"
    underline-thickness="50"
    underline-position="-100"
    unicode-range="U+000D-FB02"
  />
<missing-glyph horiz-adv-x="719" 
d="M91 999h536v-999h-536v999zM578 50v899h-439v-899h439z" />
    <glyph glyph-name="fi" unicode="fi" horiz-adv-x="514" 
d="M367.5 27.5q-11.5 21.5 -11.5 59.5v330h-202v-417h-67v543q0 83 45.5 127.5t129.5 44.5h27v-54h-27q-52 0 -80 -30.5t-28 -87.5v-73h269v-385q0 -18 6.5 -29.5t24.5 -26.5l-44 -40q-31 17 -42.5 38.5zM357 590q-14 14 -14 33t14 32.5t33 13.5t32.5 -13.5t13.5 -32.5
t-13.5 -33t-32.5 -14t-33 14z" />
    <glyph glyph-name="fl" unicode="fl" horiz-adv-x="522" 
d="M132.5 670.5q45.5 44.5 129.5 44.5h27v-54h-27q-52 0 -80 -30.5t-28 -87.5v-73h135v-53h-135v-417h-67v543q0 83 45.5 127.5zM442.5 55.5q6.5 -11.5 24.5 -26.5l-44 -40q-31 17 -42.5 38.5t-11.5 59.5v532q0 19 -6.5 30.5t-24.5 25.5l44 40q31 -17 42.5 -38.5t11.5 -59.5
v-532q0 -18 6.5 -29.5z" />
    <glyph glyph-name="uni0E240E45" unicode="&#xe24;&#xe45;" horiz-adv-x="930" 
d="M799 520q51 -47 51 -130v-640h-67v640q0 57 -33.5 90t-91.5 33q-48 0 -82.5 -16t-69.5 -55q18 -49 18 -117v-575h-67v575q0 95 -41.5 141.5t-126.5 46.5l-130 -2l-43 -1l99 -97v-39q-41 -16 -59.5 -48t-18.5 -85v-32q22 15 43 15q33 0 53.5 -25.5t20.5 -67.5
q0 -62 -29 -101.5t-75 -39.5q-36 0 -57 24.5t-21 67.5v159q0 118 90 158v4l-107 108v56h234q131 0 188 -73q38 37 81.5 55t99.5 18q90 0 141 -47zM138.5 156.5q-16.5 -29.5 -16.5 -75.5q0 -23 9 -37.5t23 -14.5q25 0 41.5 29t16.5 73q0 24 -9 39.5t-23 15.5
q-25 0 -41.5 -29.5z" />
    <glyph glyph-name="uni0E260E45" unicode="&#xe26;&#xe45;" horiz-adv-x="959" 
d="M828 520q51 -47 51 -130v-640h-66v640q0 58 -34 90.5t-96 32.5q-88 0 -149 -73q17 -48 17 -108v-581h-67v581q0 44 -9.5 81.5t-50.5 68.5t-126 31l-176 -3l97 -96v-332q0 -43 -21 -67.5t-58 -24.5q-45 0 -74 39.5t-29 101.5q0 42 20 67.5t53 25.5q22 0 44 -15v205l-95 97
v56h248q140 0 198 -75q38 40 81 57.5t97 17.5q94 0 145 -47zM160 43.5q9 14.5 9 37.5q0 46 -16.5 75.5t-41.5 29.5q-14 0 -23 -15.5t-9 -39.5q0 -44 16.5 -73t41.5 -29q14 0 23 14.5z" />
    <glyph glyph-name=".notdef" horiz-adv-x="719" 
d="M91 999h536v-999h-536v999zM578 50v899h-439v-899h439z" />
    <glyph glyph-name="NULL" 
 />
    <glyph glyph-name="NULL" 
 />
    <glyph glyph-name="nonmarkingreturn" unicode="&#xd;" horiz-adv-x="248" 
 />
    <glyph glyph-name="space" unicode=" " horiz-adv-x="248" 
 />
    <glyph glyph-name="A" unicode="A" horiz-adv-x="659" 
d="M487 225h-316l-69 -225h-72l181 585q22 71 47.5 98.5t70.5 27.5t71 -27.5t48 -98.5l181 -585h-73zM470 281l-93 303q-11 34 -21 47t-27 13q-16 0 -26 -13t-21 -47l-93 -303h281z" />
    <glyph glyph-name="Aacute" unicode="&#xc1;" horiz-adv-x="659" 
d="M487 225h-316l-69 -225h-72l181 585q22 71 47.5 98.5t70.5 27.5t71 -27.5t48 -98.5l181 -585h-73zM470 281l-93 303q-11 34 -21 47t-27 13q-16 0 -26 -13t-21 -47l-93 -303h281zM381 923h74l-99 -145h-55z" />
    <glyph glyph-name="Abreve" unicode="&#x102;" horiz-adv-x="659" 
d="M487 225h-316l-69 -225h-72l181 585q22 71 47.5 98.5t70.5 27.5t71 -27.5t48 -98.5l181 -585h-73zM470 281l-93 303q-11 34 -21 47t-27 13q-16 0 -26 -13t-21 -47l-93 -303h281zM222.5 811.5q-39.5 38.5 -39.5 103.5h49q3 -42 28.5 -66.5t68.5 -24.5t68.5 24.5t28.5 66.5
h49q0 -65 -39.5 -103.5t-106.5 -38.5t-106.5 38.5z" />
    <glyph glyph-name="uni1EAE" unicode="&#x1eae;" horiz-adv-x="659" 
d="M487 225h-316l-69 -225h-72l181 585q22 71 47.5 98.5t70.5 27.5t71 -27.5t48 -98.5l181 -585h-73zM470 281l-93 303q-11 34 -21 47t-27 13q-16 0 -26 -13t-21 -47l-93 -303h281zM364 1070h74l-82 -111h-55zM222.5 811.5q-39.5 38.5 -39.5 103.5h49q3 -42 28.5 -66.5
t68.5 -24.5t68.5 24.5t28.5 66.5h49q0 -65 -39.5 -103.5t-106.5 -38.5t-106.5 38.5z" />
    <glyph glyph-name="uni1EB6" unicode="&#x1eb6;" horiz-adv-x="659" 
d="M487 225h-316l-69 -225h-72l181 585q22 71 47.5 98.5t70.5 27.5t71 -27.5t48 -98.5l181 -585h-73zM470 281l-93 303q-11 34 -21 47t-27 13q-16 0 -26 -13t-21 -47l-93 -303h281zM295.5 -148.5q-13.5 13.5 -13.5 33.5q0 19 13.5 33t33.5 14q19 0 33 -14t14 -33
q0 -20 -14 -33.5t-33 -13.5q-20 0 -33.5 13.5zM222.5 811.5q-39.5 38.5 -39.5 103.5h49q3 -42 28.5 -66.5t68.5 -24.5t68.5 24.5t28.5 66.5h49q0 -65 -39.5 -103.5t-106.5 -38.5t-106.5 38.5z" />
    <glyph glyph-name="uni1EB0" unicode="&#x1eb0;" horiz-adv-x="659" 
d="M487 225h-316l-69 -225h-72l181 585q22 71 47.5 98.5t70.5 27.5t71 -27.5t48 -98.5l181 -585h-73zM470 281l-93 303q-11 34 -21 47t-27 13q-16 0 -26 -13t-21 -47l-93 -303h281zM219 1070h74l63 -111h-55zM222.5 811.5q-39.5 38.5 -39.5 103.5h49q3 -42 28.5 -66.5
t68.5 -24.5t68.5 24.5t28.5 66.5h49q0 -65 -39.5 -103.5t-106.5 -38.5t-106.5 38.5z" />
    <glyph glyph-name="uni1EB2" unicode="&#x1eb2;" horiz-adv-x="659" 
d="M487 225h-316l-69 -225h-72l181 585q22 71 47.5 98.5t70.5 27.5t71 -27.5t48 -98.5l181 -585h-73zM470 281l-93 303q-11 34 -21 47t-27 13q-16 0 -26 -13t-21 -47l-93 -303h281zM284 1055l-11 39q28 12 65 12q87 0 87 -68q0 -31 -18 -46.5t-51 -22.5v-35h-50v62
q39 5 54.5 12.5t15.5 24.5q0 19 -10.5 25t-33.5 6q-21 0 -48 -9zM475 915q0 -65 -39.5 -103.5t-106.5 -38.5t-106.5 38.5t-39.5 103.5h49q3 -42 28.5 -66.5t68.5 -24.5t68.5 24.5t28.5 66.5h49z" />
    <glyph glyph-name="uni1EB4" unicode="&#x1eb4;" horiz-adv-x="659" 
d="M487 225h-316l-69 -225h-72l181 585q22 71 47.5 98.5t70.5 27.5t71 -27.5t48 -98.5l181 -585h-73zM470 281l-93 303q-11 34 -21 47t-27 13q-16 0 -26 -13t-21 -47l-93 -303h281zM209 1026q21 27 62 27q19 0 34.5 -6t34.5 -17q12 -7 25 -12.5t24 -5.5q18 0 26 10.5
t13 34.5h42q-2 -40 -23 -67t-58 -27q-19 0 -35 6t-36 17q-29 18 -47 18q-19 0 -28 -11t-15 -36h-42q2 42 23 69zM222.5 811.5q-39.5 38.5 -39.5 103.5h49q3 -42 28.5 -66.5t68.5 -24.5t68.5 24.5t28.5 66.5h49q0 -65 -39.5 -103.5t-106.5 -38.5t-106.5 38.5z" />
    <glyph glyph-name="uni01CD" unicode="&#x1cd;" horiz-adv-x="659" 
d="M487 225h-316l-69 -225h-72l181 585q22 71 47.5 98.5t70.5 27.5t71 -27.5t48 -98.5l181 -585h-73zM470 281l-93 303q-11 34 -21 47t-27 13q-16 0 -26 -13t-21 -47l-93 -303h281zM246 861.5q-37 43.5 -67 66.5h65q24 -19 50 -48.5t35 -48.5q8 19 34 48.5t50 48.5h65
q-30 -23 -66.5 -66.5t-58.5 -83.5h-49q-21 40 -58 83.5z" />
    <glyph glyph-name="Acircumflex" unicode="&#xc2;" horiz-adv-x="659" 
d="M487 225h-316l-69 -225h-72l181 585q22 71 47.5 98.5t70.5 27.5t71 -27.5t48 -98.5l181 -585h-73zM470 281l-93 303q-11 34 -21 47t-27 13q-16 0 -26 -13t-21 -47l-93 -303h281zM246 843.5q37 43.5 58 84.5h49q22 -41 58.5 -84.5t66.5 -65.5h-65q-24 19 -50 48.5
t-34 47.5q-9 -19 -35 -48t-50 -48h-65q30 22 67 65.5z" />
    <glyph glyph-name="uni1EA4" unicode="&#x1ea4;" horiz-adv-x="659" 
d="M487 225h-316l-69 -225h-72l181 585q22 71 47.5 98.5t70.5 27.5t71 -27.5t48 -98.5l181 -585h-73zM470 281l-93 303q-11 34 -21 47t-27 13q-16 0 -26 -13t-21 -47l-93 -303h281zM496 976h70l-78 -111h-55zM246 843.5q37 43.5 58 84.5h49q22 -41 58.5 -84.5t66.5 -65.5
h-65q-24 19 -50 48.5t-34 47.5q-9 -19 -35 -48t-50 -48h-65q30 22 67 65.5z" />
    <glyph glyph-name="uni1EAC" unicode="&#x1eac;" horiz-adv-x="659" 
d="M487 225h-316l-69 -225h-72l181 585q22 71 47.5 98.5t70.5 27.5t71 -27.5t48 -98.5l181 -585h-73zM470 281l-93 303q-11 34 -21 47t-27 13q-16 0 -26 -13t-21 -47l-93 -303h281zM295.5 -148.5q-13.5 13.5 -13.5 33.5q0 19 13.5 33t33.5 14q19 0 33 -14t14 -33
q0 -20 -14 -33.5t-33 -13.5q-20 0 -33.5 13.5zM246 843.5q37 43.5 58 84.5h49q22 -41 58.5 -84.5t66.5 -65.5h-65q-24 19 -50 48.5t-34 47.5q-9 -19 -35 -48t-50 -48h-65q30 22 67 65.5z" />
    <glyph glyph-name="uni1EA6" unicode="&#x1ea6;" horiz-adv-x="659" 
d="M487 225h-316l-69 -225h-72l181 585q22 71 47.5 98.5t70.5 27.5t71 -27.5t48 -98.5l181 -585h-73zM470 281l-93 303q-11 34 -21 47t-27 13q-16 0 -26 -13t-21 -47l-93 -303h281zM413 976h70l63 -111h-55zM246 843.5q37 43.5 58 84.5h49q22 -41 58.5 -84.5t66.5 -65.5h-65
q-24 19 -50 48.5t-34 47.5q-9 -19 -35 -48t-50 -48h-65q30 22 67 65.5z" />
    <glyph glyph-name="uni1EA8" unicode="&#x1ea8;" horiz-adv-x="659" 
d="M487 225h-316l-69 -225h-72l181 585q22 71 47.5 98.5t70.5 27.5t71 -27.5t48 -98.5l181 -585h-73zM470 281l-93 303q-11 34 -21 47t-27 13q-16 0 -26 -13t-21 -47l-93 -303h281zM533 923.5q-18 -15.5 -51 -22.5v-35h-50v62q39 5 54.5 12.5t15.5 24.5q0 19 -10.5 25
t-33.5 6q-21 0 -48 -9l-11 39q29 12 65 12q87 0 87 -68q0 -31 -18 -46.5zM411.5 843.5q36.5 -43.5 66.5 -65.5h-65q-24 19 -50 48.5t-34 47.5q-9 -19 -35 -48t-50 -48h-65q30 22 67 65.5t58 84.5h49q22 -41 58.5 -84.5z" />
    <glyph glyph-name="uni1EAA" unicode="&#x1eaa;" horiz-adv-x="659" 
d="M487 225h-316l-69 -225h-72l181 585q22 71 47.5 98.5t70.5 27.5t71 -27.5t48 -98.5l181 -585h-73zM470 281l-93 303q-11 34 -21 47t-27 13q-16 0 -26 -13t-21 -47l-93 -303h281zM209 1026q21 27 62 27q19 0 34.5 -6t34.5 -17q12 -7 25 -12.5t24 -5.5q18 0 26 10.5
t13 34.5h42q-2 -40 -23 -67t-58 -27q-19 0 -35 6t-36 17q-29 18 -47 18q-19 0 -28 -11t-15 -36h-42q2 42 23 69zM246 843.5q37 43.5 58 84.5h49q22 -41 58.5 -84.5t66.5 -65.5h-65q-24 19 -50 48.5t-34 47.5q-9 -19 -35 -48t-50 -48h-65q30 22 67 65.5z" />
    <glyph glyph-name="Adieresis" unicode="&#xc4;" horiz-adv-x="659" 
d="M487 225h-316l-69 -225h-72l181 585q22 71 47.5 98.5t70.5 27.5t71 -27.5t48 -98.5l181 -585h-73zM470 281l-93 303q-11 34 -21 47t-27 13q-16 0 -26 -13t-21 -47l-93 -303h281zM218.5 789.5q-12.5 12.5 -12.5 29.5t12.5 29.5t29.5 12.5t29 -12.5t12 -29.5t-12 -29.5
t-29 -12.5t-29.5 12.5zM381 789.5q-12 12.5 -12 29.5t12 29.5t30 12.5q17 0 29.5 -12.5t12.5 -29.5t-12.5 -29.5t-29.5 -12.5q-18 0 -30 12.5z" />
    <glyph glyph-name="uni1EA0" unicode="&#x1ea0;" horiz-adv-x="659" 
d="M487 225h-316l-69 -225h-72l181 585q22 71 47.5 98.5t70.5 27.5t71 -27.5t48 -98.5l181 -585h-73zM470 281l-93 303q-11 34 -21 47t-27 13q-16 0 -26 -13t-21 -47l-93 -303h281zM295.5 -148.5q-13.5 13.5 -13.5 33.5q0 19 13.5 33t33.5 14q19 0 33 -14t14 -33
q0 -20 -14 -33.5t-33 -13.5q-20 0 -33.5 13.5z" />
    <glyph glyph-name="Agrave" unicode="&#xc0;" horiz-adv-x="659" 
d="M487 225h-316l-69 -225h-72l181 585q22 71 47.5 98.5t70.5 27.5t71 -27.5t48 -98.5l181 -585h-73zM470 281l-93 303q-11 34 -21 47t-27 13q-16 0 -26 -13t-21 -47l-93 -303h281zM200 923h74l81 -145h-56z" />
    <glyph glyph-name="uni1EA2" unicode="&#x1ea2;" horiz-adv-x="659" 
d="M487 225h-316l-69 -225h-72l181 585q22 71 47.5 98.5t70.5 27.5t71 -27.5t48 -98.5l181 -585h-73zM470 281l-93 303q-11 34 -21 47t-27 13q-16 0 -26 -13t-21 -47l-93 -303h281zM409.5 841q-20.5 -18 -57.5 -25v-38h-53v65q41 5 58 15.5t17 29.5q0 21 -12 30t-35 9
t-50 -9l-12 40q31 14 68 14q44 0 70.5 -20t26.5 -59q0 -34 -20.5 -52z" />
    <glyph glyph-name="Amacron" unicode="&#x100;" horiz-adv-x="659" 
d="M487 225h-316l-69 -225h-72l181 585q22 71 47.5 98.5t70.5 27.5t71 -27.5t48 -98.5l181 -585h-73zM470 281l-93 303q-11 34 -21 47t-27 13q-16 0 -26 -13t-21 -47l-93 -303h281zM179 851h299v-52h-299v52z" />
    <glyph glyph-name="Aogonek" unicode="&#x104;" horiz-adv-x="659" 
d="M693 -180q-33 -20 -72 -20q-56 0 -80 26t-24 59q0 60 52 115h-13l-69 225h-316l-69 -225h-72l181 585q22 71 47.5 98.5t70.5 27.5t71 -27.5t48 -98.5l181 -585h-9q-22 -31 -33 -56t-11 -50q0 -24 14 -35.5t37 -11.5q21 0 54 14zM470 281l-93 303q-11 34 -21 47t-27 13
q-16 0 -26 -13t-21 -47l-93 -303h281z" />
    <glyph glyph-name="Aring" unicode="&#xc5;" horiz-adv-x="659" 
d="M487 225h-316l-69 -225h-72l181 585q22 71 47.5 98.5t70.5 27.5t71 -27.5t48 -98.5l181 -585h-73zM470 281l-93 303q-11 34 -21 47t-27 13q-16 0 -26 -13t-21 -47l-93 -303h281zM259 791q-26 25 -26 66t26 66t70 25t70 -25t26 -66t-26 -66t-70 -25t-70 25zM368 817.5
q14 14.5 14 39.5t-14 39.5t-39 14.5t-39 -14.5t-14 -39.5t14 -39.5t39 -14.5t39 14.5z" />
    <glyph glyph-name="Aringacute" unicode="&#x1fa;" horiz-adv-x="659" 
d="M349 998h-44l64 116h59zM259 791q-26 25 -26 66t26 66t70 25t70 -25t26 -66t-26 -66t-70 -25t-70 25zM290 896.5q-14 -14.5 -14 -39.5t14 -39.5t39 -14.5t39 14.5t14 39.5t-14 39.5t-39 14.5t-39 -14.5zM487 225h-316l-69 -225h-72l181 585q22 71 47.5 98.5t70.5 27.5
t71 -27.5t48 -98.5l181 -585h-73zM470 281l-93 303q-11 34 -21 47t-27 13q-16 0 -26 -13t-21 -47l-93 -303h281z" />
    <glyph glyph-name="Atilde" unicode="&#xc3;" horiz-adv-x="659" 
d="M487 225h-316l-69 -225h-72l181 585q22 71 47.5 98.5t70.5 27.5t71 -27.5t48 -98.5l181 -585h-73zM470 281l-93 303q-11 34 -21 47t-27 13q-16 0 -26 -13t-21 -47l-93 -303h281zM200 859.5q23 29.5 67 29.5q21 0 37.5 -6.5t38.5 -19.5q18 -10 29 -14.5t23 -4.5
q19 0 28 11.5t14 37.5h46q-3 -43 -25.5 -72.5t-62.5 -29.5q-21 0 -38.5 7t-37.5 19q-18 10 -29 14.5t-23 4.5q-21 0 -30.5 -12t-15.5 -39h-46q2 45 25 74.5z" />
    <glyph glyph-name="AE" unicode="&#xc6;" horiz-adv-x="1042" 
d="M997 58v-58h-248q-116 0 -172.5 51.5t-56.5 157.5v16h-288l-122 -225h-80l309 574q28 52 48.5 78.5t42 37t52.5 10.5q68 0 94 -54q59 54 173 54h241v-58h-241q-157 0 -157 -151v-112h348v-58h-348v-112q0 -77 38 -114t119 -37h248zM520 281v293q0 59 -39 59
q-17 0 -30 -12.5t-31 -46.5l-158 -293h258z" />
    <glyph glyph-name="AEacute" unicode="&#x1fc;" horiz-adv-x="1042" 
d="M997 58v-58h-248q-116 0 -172.5 51.5t-56.5 157.5v16h-288l-122 -225h-80l309 574q28 52 48.5 78.5t42 37t52.5 10.5q68 0 94 -54q59 54 173 54h241v-58h-241q-157 0 -157 -151v-112h348v-58h-348v-112q0 -77 38 -114t119 -37h248zM520 281v293q0 59 -39 59
q-17 0 -30 -12.5t-31 -46.5l-158 -293h258zM573 923h74l-99 -145h-55z" />
    <glyph glyph-name="B" unicode="B" horiz-adv-x="668" 
d="M95 700h304q87 0 140 -47.5t53 -125.5q0 -58 -31 -99.5t-86 -57.5q65 -16 101.5 -62.5t36.5 -115.5q0 -89 -59 -140.5t-160 -51.5h-299v700zM393 397q56 0 91.5 34.5t35.5 88.5q0 56 -34.5 89t-92.5 33h-226v-245h226zM377 58q80 0 122 36t42 104t-42.5 104.5
t-121.5 36.5h-210v-281h210z" />
    <glyph glyph-name="C" unicode="C" horiz-adv-x="632" 
d="M137.5 54q-72.5 65 -72.5 190v213q0 123 70.5 188.5t203.5 65.5q87 0 149 -27.5t102 -85.5l-51 -37q-35 47 -82.5 69.5t-114.5 22.5q-100 0 -152.5 -50t-52.5 -146v-213q0 -97 53.5 -147t157.5 -50q69 0 117 23t83 72l51 -39q-45 -60 -104 -87t-146 -27q-139 0 -211.5 65
z" />
    <glyph glyph-name="Cacute" unicode="&#x106;" horiz-adv-x="632" 
d="M137.5 54q-72.5 65 -72.5 190v213q0 123 70.5 188.5t203.5 65.5q87 0 149 -27.5t102 -85.5l-51 -37q-35 47 -82.5 69.5t-114.5 22.5q-100 0 -152.5 -50t-52.5 -146v-213q0 -97 53.5 -147t157.5 -50q69 0 117 23t83 72l51 -39q-45 -60 -104 -87t-146 -27q-139 0 -211.5 65
zM394 923h74l-99 -145h-55z" />
    <glyph glyph-name="Ccaron" unicode="&#x10c;" horiz-adv-x="632" 
d="M137.5 54q-72.5 65 -72.5 190v213q0 123 70.5 188.5t203.5 65.5q87 0 149 -27.5t102 -85.5l-51 -37q-35 47 -82.5 69.5t-114.5 22.5q-100 0 -152.5 -50t-52.5 -146v-213q0 -97 53.5 -147t157.5 -50q69 0 117 23t83 72l51 -39q-45 -60 -104 -87t-146 -27q-139 0 -211.5 65
zM259 861.5q-37 43.5 -67 66.5h65q24 -19 50 -48.5t35 -48.5q8 19 34 48.5t50 48.5h65q-30 -23 -66.5 -66.5t-58.5 -83.5h-49q-21 40 -58 83.5z" />
    <glyph glyph-name="Ccedilla" unicode="&#xc7;" horiz-adv-x="632" 
d="M500.5 18.5q-55.5 -27.5 -135.5 -29.5l-11 -36q82 -4 82 -74q0 -76 -109 -76q-50 0 -88 19l12 41q39 -16 70 -16t45 7.5t14 24.5q0 16 -11.5 25.5t-44.5 9.5q-6 0 -30 -2l19 78q-122 8 -185 72.5t-63 181.5v213q0 123 70.5 188.5t203.5 65.5q87 0 149 -27.5t102 -85.5
l-51 -37q-35 47 -82.5 69.5t-114.5 22.5q-100 0 -152.5 -50t-52.5 -146v-213q0 -97 53.5 -147t157.5 -50q69 0 117 23t83 72l51 -39q-43 -57 -98.5 -84.5z" />
    <glyph glyph-name="Ccircumflex" unicode="&#x108;" horiz-adv-x="632" 
d="M137.5 54q-72.5 65 -72.5 190v213q0 123 70.5 188.5t203.5 65.5q87 0 149 -27.5t102 -85.5l-51 -37q-35 47 -82.5 69.5t-114.5 22.5q-100 0 -152.5 -50t-52.5 -146v-213q0 -97 53.5 -147t157.5 -50q69 0 117 23t83 72l51 -39q-45 -60 -104 -87t-146 -27q-139 0 -211.5 65
zM259 843.5q37 43.5 58 84.5h49q22 -41 58.5 -84.5t66.5 -65.5h-65q-24 19 -50 48.5t-34 47.5q-9 -19 -35 -48t-50 -48h-65q30 22 67 65.5z" />
    <glyph glyph-name="Cdotaccent" unicode="&#x10a;" horiz-adv-x="632" 
d="M137.5 54q-72.5 65 -72.5 190v213q0 123 70.5 188.5t203.5 65.5q87 0 149 -27.5t102 -85.5l-51 -37q-35 47 -82.5 69.5t-114.5 22.5q-100 0 -152.5 -50t-52.5 -146v-213q0 -97 53.5 -147t157.5 -50q69 0 117 23t83 72l51 -39q-45 -60 -104 -87t-146 -27q-139 0 -211.5 65
zM309 791q-14 14 -14 34q0 19 14 33t33 14t33 -14t14 -33q0 -20 -14 -34t-33 -14t-33 14z" />
    <glyph glyph-name="D" unicode="D" horiz-adv-x="701" 
d="M95 700h249q110 0 174.5 -34t93.5 -110t29 -206q0 -131 -28.5 -206.5t-93 -109.5t-175.5 -34h-249v700zM344 58q83 0 132 28.5t71 92t22 170.5t-22.5 171t-71.5 93t-131 29h-177v-584h177z" />
    <glyph glyph-name="Eth" unicode="&#xd0;" horiz-adv-x="701" 
d="M518.5 666q64.5 -34 93.5 -110t29 -206q0 -131 -28.5 -206.5t-93 -109.5t-175.5 -34h-249v325h-82v52h82v323h249q110 0 174.5 -34zM476 86.5q49 28.5 71 92t22 170.5t-22.5 171t-71.5 93t-131 29h-177v-265h201v-52h-201v-267h177q83 0 132 28.5z" />
    <glyph glyph-name="Dcaron" unicode="&#x10e;" horiz-adv-x="701" 
d="M95 700h249q110 0 174.5 -34t93.5 -110t29 -206q0 -131 -28.5 -206.5t-93 -109.5t-175.5 -34h-249v700zM344 58q83 0 132 28.5t71 92t22 170.5t-22.5 171t-71.5 93t-131 29h-177v-584h177zM271 861.5q-37 43.5 -67 66.5h65q24 -19 50 -48.5t35 -48.5q8 19 34 48.5
t50 48.5h65q-30 -23 -66.5 -66.5t-58.5 -83.5h-49q-21 40 -58 83.5z" />
    <glyph glyph-name="Dcroat" unicode="&#x110;" horiz-adv-x="701" 
d="M518.5 666q64.5 -34 93.5 -110t29 -206q0 -131 -28.5 -206.5t-93 -109.5t-175.5 -34h-249v325h-82v52h82v323h249q110 0 174.5 -34zM476 86.5q49 28.5 71 92t22 170.5t-22.5 171t-71.5 93t-131 29h-177v-265h201v-52h-201v-267h177q83 0 132 28.5z" />
    <glyph glyph-name="uni1E0C" unicode="&#x1e0c;" horiz-adv-x="701" 
d="M95 700h249q110 0 174.5 -34t93.5 -110t29 -206q0 -131 -28.5 -206.5t-93 -109.5t-175.5 -34h-249v700zM344 58q83 0 132 28.5t71 92t22 170.5t-22.5 171t-71.5 93t-131 29h-177v-584h177zM320.5 -148.5q-13.5 13.5 -13.5 33.5q0 19 13.5 33t33.5 14q19 0 33 -14t14 -33
q0 -20 -14 -33.5t-33 -13.5q-20 0 -33.5 13.5z" />
    <glyph glyph-name="uni1E0E" unicode="&#x1e0e;" horiz-adv-x="701" 
d="M95 700h249q110 0 174.5 -34t93.5 -110t29 -206q0 -131 -28.5 -206.5t-93 -109.5t-175.5 -34h-249v700zM344 58q83 0 132 28.5t71 92t22 170.5t-22.5 171t-71.5 93t-131 29h-177v-584h177zM204 -81h299v-53h-299v53z" />
    <glyph glyph-name="E" unicode="E" horiz-adv-x="585" 
d="M119.5 51.5q-56.5 51.5 -56.5 157.5v282q0 106 56.5 157.5t173.5 51.5h241v-58h-241q-81 0 -119.5 -37t-38.5 -114v-112h348v-58h-348v-112q0 -77 38.5 -114t119.5 -37h247v-58h-247q-117 0 -173.5 51.5z" />
    <glyph glyph-name="Eacute" unicode="&#xc9;" horiz-adv-x="585" 
d="M119.5 51.5q-56.5 51.5 -56.5 157.5v282q0 106 56.5 157.5t173.5 51.5h241v-58h-241q-81 0 -119.5 -37t-38.5 -114v-112h348v-58h-348v-112q0 -77 38.5 -114t119.5 -37h247v-58h-247q-117 0 -173.5 51.5zM388 923h74l-99 -145h-55z" />
    <glyph glyph-name="Ebreve" unicode="&#x114;" horiz-adv-x="585" 
d="M119.5 51.5q-56.5 51.5 -56.5 157.5v282q0 106 56.5 157.5t173.5 51.5h241v-58h-241q-81 0 -119.5 -37t-38.5 -114v-112h348v-58h-348v-112q0 -77 38.5 -114t119.5 -37h247v-58h-247q-117 0 -173.5 51.5zM229.5 811.5q-39.5 38.5 -39.5 103.5h49q3 -42 28.5 -66.5
t68.5 -24.5t68.5 24.5t28.5 66.5h49q0 -65 -39.5 -103.5t-106.5 -38.5t-106.5 38.5z" />
    <glyph glyph-name="Ecaron" unicode="&#x11a;" horiz-adv-x="585" 
d="M119.5 51.5q-56.5 51.5 -56.5 157.5v282q0 106 56.5 157.5t173.5 51.5h241v-58h-241q-81 0 -119.5 -37t-38.5 -114v-112h348v-58h-348v-112q0 -77 38.5 -114t119.5 -37h247v-58h-247q-117 0 -173.5 51.5zM253 861.5q-37 43.5 -67 66.5h65q24 -19 50 -48.5t35 -48.5
q8 19 34 48.5t50 48.5h65q-30 -23 -66.5 -66.5t-58.5 -83.5h-49q-21 40 -58 83.5z" />
    <glyph glyph-name="Ecircumflex" unicode="&#xca;" horiz-adv-x="585" 
d="M119.5 51.5q-56.5 51.5 -56.5 157.5v282q0 106 56.5 157.5t173.5 51.5h241v-58h-241q-81 0 -119.5 -37t-38.5 -114v-112h348v-58h-348v-112q0 -77 38.5 -114t119.5 -37h247v-58h-247q-117 0 -173.5 51.5zM253 843.5q37 43.5 58 84.5h49q22 -41 58.5 -84.5t66.5 -65.5h-65
q-24 19 -50 48.5t-34 47.5q-9 -19 -35 -48t-50 -48h-65q30 22 67 65.5z" />
    <glyph glyph-name="uni1EBE" unicode="&#x1ebe;" horiz-adv-x="585" 
d="M119.5 51.5q-56.5 51.5 -56.5 157.5v282q0 106 56.5 157.5t173.5 51.5h241v-58h-241q-81 0 -119.5 -37t-38.5 -114v-112h348v-58h-348v-112q0 -77 38.5 -114t119.5 -37h247v-58h-247q-117 0 -173.5 51.5zM503 976h70l-78 -111h-55zM253 843.5q37 43.5 58 84.5h49
q22 -41 58.5 -84.5t66.5 -65.5h-65q-24 19 -50 48.5t-34 47.5q-9 -19 -35 -48t-50 -48h-65q30 22 67 65.5z" />
    <glyph glyph-name="uni1EC6" unicode="&#x1ec6;" horiz-adv-x="585" 
d="M119.5 51.5q-56.5 51.5 -56.5 157.5v282q0 106 56.5 157.5t173.5 51.5h241v-58h-241q-81 0 -119.5 -37t-38.5 -114v-112h348v-58h-348v-112q0 -77 38.5 -114t119.5 -37h247v-58h-247q-117 0 -173.5 51.5zM312.5 -148.5q-13.5 13.5 -13.5 33.5q0 19 13.5 33t33.5 14
q19 0 33 -14t14 -33q0 -20 -14 -33.5t-33 -13.5q-20 0 -33.5 13.5zM253 843.5q37 43.5 58 84.5h49q22 -41 58.5 -84.5t66.5 -65.5h-65q-24 19 -50 48.5t-34 47.5q-9 -19 -35 -48t-50 -48h-65q30 22 67 65.5z" />
    <glyph glyph-name="uni1EC0" unicode="&#x1ec0;" horiz-adv-x="585" 
d="M119.5 51.5q-56.5 51.5 -56.5 157.5v282q0 106 56.5 157.5t173.5 51.5h241v-58h-241q-81 0 -119.5 -37t-38.5 -114v-112h348v-58h-348v-112q0 -77 38.5 -114t119.5 -37h247v-58h-247q-117 0 -173.5 51.5zM420 976h70l63 -111h-55zM253 843.5q37 43.5 58 84.5h49
q22 -41 58.5 -84.5t66.5 -65.5h-65q-24 19 -50 48.5t-34 47.5q-9 -19 -35 -48t-50 -48h-65q30 22 67 65.5z" />
    <glyph glyph-name="uni1EC2" unicode="&#x1ec2;" horiz-adv-x="585" 
d="M119.5 51.5q-56.5 51.5 -56.5 157.5v282q0 106 56.5 157.5t173.5 51.5h241v-58h-241q-81 0 -119.5 -37t-38.5 -114v-112h348v-58h-348v-112q0 -77 38.5 -114t119.5 -37h247v-58h-247q-117 0 -173.5 51.5zM540 923.5q-18 -15.5 -51 -22.5v-35h-50v62q39 5 54.5 12.5
t15.5 24.5q0 19 -10.5 25t-33.5 6q-21 0 -48 -9l-11 39q29 12 65 12q87 0 87 -68q0 -31 -18 -46.5zM418.5 843.5q36.5 -43.5 66.5 -65.5h-65q-24 19 -50 48.5t-34 47.5q-9 -19 -35 -48t-50 -48h-65q30 22 67 65.5t58 84.5h49q22 -41 58.5 -84.5z" />
    <glyph glyph-name="uni1EC4" unicode="&#x1ec4;" horiz-adv-x="585" 
d="M119.5 51.5q-56.5 51.5 -56.5 157.5v282q0 106 56.5 157.5t173.5 51.5h241v-58h-241q-81 0 -119.5 -37t-38.5 -114v-112h348v-58h-348v-112q0 -77 38.5 -114t119.5 -37h247v-58h-247q-117 0 -173.5 51.5zM216 1026q21 27 62 27q19 0 34.5 -6t34.5 -17q12 -7 25 -12.5
t24 -5.5q18 0 26 10.5t13 34.5h42q-2 -40 -23 -67t-58 -27q-19 0 -35 6t-36 17q-29 18 -47 18q-19 0 -28 -11t-15 -36h-42q2 42 23 69zM253 843.5q37 43.5 58 84.5h49q22 -41 58.5 -84.5t66.5 -65.5h-65q-24 19 -50 48.5t-34 47.5q-9 -19 -35 -48t-50 -48h-65q30 22 67 65.5
z" />
    <glyph glyph-name="Edieresis" unicode="&#xcb;" horiz-adv-x="585" 
d="M119.5 51.5q-56.5 51.5 -56.5 157.5v282q0 106 56.5 157.5t173.5 51.5h241v-58h-241q-81 0 -119.5 -37t-38.5 -114v-112h348v-58h-348v-112q0 -77 38.5 -114t119.5 -37h247v-58h-247q-117 0 -173.5 51.5zM225.5 789.5q-12.5 12.5 -12.5 29.5t12.5 29.5t29.5 12.5
t29 -12.5t12 -29.5t-12 -29.5t-29 -12.5t-29.5 12.5zM388 789.5q-12 12.5 -12 29.5t12 29.5t30 12.5q17 0 29.5 -12.5t12.5 -29.5t-12.5 -29.5t-29.5 -12.5q-18 0 -30 12.5z" />
    <glyph glyph-name="Edotaccent" unicode="&#x116;" horiz-adv-x="585" 
d="M119.5 51.5q-56.5 51.5 -56.5 157.5v282q0 106 56.5 157.5t173.5 51.5h241v-58h-241q-81 0 -119.5 -37t-38.5 -114v-112h348v-58h-348v-112q0 -77 38.5 -114t119.5 -37h247v-58h-247q-117 0 -173.5 51.5zM303 791q-14 14 -14 34q0 19 14 33t33 14t33 -14t14 -33
q0 -20 -14 -34t-33 -14t-33 14z" />
    <glyph glyph-name="uni1EB8" unicode="&#x1eb8;" horiz-adv-x="585" 
d="M119.5 51.5q-56.5 51.5 -56.5 157.5v282q0 106 56.5 157.5t173.5 51.5h241v-58h-241q-81 0 -119.5 -37t-38.5 -114v-112h348v-58h-348v-112q0 -77 38.5 -114t119.5 -37h247v-58h-247q-117 0 -173.5 51.5zM312.5 -148.5q-13.5 13.5 -13.5 33.5q0 19 13.5 33t33.5 14
q19 0 33 -14t14 -33q0 -20 -14 -33.5t-33 -13.5q-20 0 -33.5 13.5z" />
    <glyph glyph-name="Egrave" unicode="&#xc8;" horiz-adv-x="585" 
d="M119.5 51.5q-56.5 51.5 -56.5 157.5v282q0 106 56.5 157.5t173.5 51.5h241v-58h-241q-81 0 -119.5 -37t-38.5 -114v-112h348v-58h-348v-112q0 -77 38.5 -114t119.5 -37h247v-58h-247q-117 0 -173.5 51.5zM207 923h74l81 -145h-56z" />
    <glyph glyph-name="uni1EBA" unicode="&#x1eba;" horiz-adv-x="585" 
d="M119.5 51.5q-56.5 51.5 -56.5 157.5v282q0 106 56.5 157.5t173.5 51.5h241v-58h-241q-81 0 -119.5 -37t-38.5 -114v-112h348v-58h-348v-112q0 -77 38.5 -114t119.5 -37h247v-58h-247q-117 0 -173.5 51.5zM416.5 841q-20.5 -18 -57.5 -25v-38h-53v65q41 5 58 15.5t17 29.5
q0 21 -12 30t-35 9t-50 -9l-12 40q31 14 68 14q44 0 70.5 -20t26.5 -59q0 -34 -20.5 -52z" />
    <glyph glyph-name="Emacron" unicode="&#x112;" horiz-adv-x="585" 
d="M119.5 51.5q-56.5 51.5 -56.5 157.5v282q0 106 56.5 157.5t173.5 51.5h241v-58h-241q-81 0 -119.5 -37t-38.5 -114v-112h348v-58h-348v-112q0 -77 38.5 -114t119.5 -37h247v-58h-247q-117 0 -173.5 51.5zM186 851h299v-52h-299v52z" />
    <glyph glyph-name="Eogonek" unicode="&#x118;" horiz-adv-x="585" 
d="M560 -180q-33 -20 -72 -20q-56 0 -80 26t-24 59q0 60 52 115h-143q-117 0 -173.5 51.5t-56.5 157.5v282q0 106 56.5 157.5t173.5 51.5h241v-58h-241q-81 0 -119.5 -37t-38.5 -114v-112h348v-58h-348v-112q0 -77 38.5 -114t119.5 -37h247v-58h-53q-22 -31 -33 -56t-11 -50
q0 -24 14 -35.5t37 -11.5q21 0 54 14z" />
    <glyph glyph-name="uni1EBC" unicode="&#x1ebc;" horiz-adv-x="585" 
d="M119.5 51.5q-56.5 51.5 -56.5 157.5v282q0 106 56.5 157.5t173.5 51.5h241v-58h-241q-81 0 -119.5 -37t-38.5 -114v-112h348v-58h-348v-112q0 -77 38.5 -114t119.5 -37h247v-58h-247q-117 0 -173.5 51.5zM207 859.5q23 29.5 67 29.5q21 0 37.5 -6.5t38.5 -19.5
q18 -10 29 -14.5t23 -4.5q19 0 28 11.5t14 37.5h46q-3 -43 -25.5 -72.5t-62.5 -29.5q-21 0 -38.5 7t-37.5 19q-18 10 -29 14.5t-23 4.5q-21 0 -30.5 -12t-15.5 -39h-46q2 45 25 74.5z" />
    <glyph glyph-name="F" unicode="F" horiz-adv-x="586" 
d="M70 491q0 106 56.5 157.5t173.5 51.5h241v-58h-241q-81 0 -119.5 -37t-38.5 -114v-132h348v-58h-348v-301h-72v491z" />
    <glyph glyph-name="G" unicode="G" horiz-adv-x="665" 
d="M136.5 54.5q-71.5 65.5 -71.5 189.5v213q0 125 71.5 189.5t210.5 64.5q167 0 250 -99l-52 -42q-70 83 -199 83q-104 0 -156.5 -49.5t-52.5 -146.5v-213q0 -98 53 -147.5t156 -49.5q90 0 143 35t53 94v64q0 45 -24 68.5t-69 23.5h-120v58h135q148 0 148 -143v-75
q0 -56 -32.5 -97t-93 -63.5t-141.5 -22.5q-137 0 -208.5 65.5z" />
    <glyph glyph-name="Gbreve" unicode="&#x11e;" horiz-adv-x="665" 
d="M136.5 54.5q-71.5 65.5 -71.5 189.5v213q0 125 71.5 189.5t210.5 64.5q167 0 250 -99l-52 -42q-70 83 -199 83q-104 0 -156.5 -49.5t-52.5 -146.5v-213q0 -98 53 -147.5t156 -49.5q90 0 143 35t53 94v64q0 45 -24 68.5t-69 23.5h-120v58h135q148 0 148 -143v-75
q0 -56 -32.5 -97t-93 -63.5t-141.5 -22.5q-137 0 -208.5 65.5zM228.5 811.5q-39.5 38.5 -39.5 103.5h49q3 -42 28.5 -66.5t68.5 -24.5t68.5 24.5t28.5 66.5h49q0 -65 -39.5 -103.5t-106.5 -38.5t-106.5 38.5z" />
    <glyph glyph-name="Gcaron" unicode="&#x1e6;" horiz-adv-x="665" 
d="M136.5 54.5q-71.5 65.5 -71.5 189.5v213q0 125 71.5 189.5t210.5 64.5q167 0 250 -99l-52 -42q-70 83 -199 83q-104 0 -156.5 -49.5t-52.5 -146.5v-213q0 -98 53 -147.5t156 -49.5q90 0 143 35t53 94v64q0 45 -24 68.5t-69 23.5h-120v58h135q148 0 148 -143v-75
q0 -56 -32.5 -97t-93 -63.5t-141.5 -22.5q-137 0 -208.5 65.5zM252 861.5q-37 43.5 -67 66.5h65q24 -19 50 -48.5t35 -48.5q8 19 34 48.5t50 48.5h65q-30 -23 -66.5 -66.5t-58.5 -83.5h-49q-21 40 -58 83.5z" />
    <glyph glyph-name="Gcircumflex" unicode="&#x11c;" horiz-adv-x="665" 
d="M136.5 54.5q-71.5 65.5 -71.5 189.5v213q0 125 71.5 189.5t210.5 64.5q167 0 250 -99l-52 -42q-70 83 -199 83q-104 0 -156.5 -49.5t-52.5 -146.5v-213q0 -98 53 -147.5t156 -49.5q90 0 143 35t53 94v64q0 45 -24 68.5t-69 23.5h-120v58h135q148 0 148 -143v-75
q0 -56 -32.5 -97t-93 -63.5t-141.5 -22.5q-137 0 -208.5 65.5zM252 843.5q37 43.5 58 84.5h49q22 -41 58.5 -84.5t66.5 -65.5h-65q-24 19 -50 48.5t-34 47.5q-9 -19 -35 -48t-50 -48h-65q30 22 67 65.5z" />
    <glyph glyph-name="uni0122" unicode="&#x122;" horiz-adv-x="665" 
d="M136.5 54.5q-71.5 65.5 -71.5 189.5v213q0 125 71.5 189.5t210.5 64.5q167 0 250 -99l-52 -42q-70 83 -199 83q-104 0 -156.5 -49.5t-52.5 -146.5v-213q0 -98 53 -147.5t156 -49.5q90 0 143 35t53 94v64q0 45 -24 68.5t-69 23.5h-120v58h135q148 0 148 -143v-75
q0 -56 -32.5 -97t-93 -63.5t-141.5 -22.5q-137 0 -208.5 65.5zM372.5 -85.5q13.5 -16.5 13.5 -44.5q0 -41 -20 -74.5t-54 -59.5l-23 22q47 34 53 79q-10 -6 -24 -6q-17 0 -26.5 11.5t-9.5 31.5q0 21 15.5 39t37.5 18q24 0 37.5 -16.5z" />
    <glyph glyph-name="Gdotaccent" unicode="&#x120;" horiz-adv-x="665" 
d="M136.5 54.5q-71.5 65.5 -71.5 189.5v213q0 125 71.5 189.5t210.5 64.5q167 0 250 -99l-52 -42q-70 83 -199 83q-104 0 -156.5 -49.5t-52.5 -146.5v-213q0 -98 53 -147.5t156 -49.5q90 0 143 35t53 94v64q0 45 -24 68.5t-69 23.5h-120v58h135q148 0 148 -143v-75
q0 -56 -32.5 -97t-93 -63.5t-141.5 -22.5q-137 0 -208.5 65.5zM302 791q-14 14 -14 34q0 19 14 33t33 14t33 -14t14 -33q0 -20 -14 -34t-33 -14t-33 14z" />
    <glyph glyph-name="uni1E20" unicode="&#x1e20;" horiz-adv-x="665" 
d="M136.5 54.5q-71.5 65.5 -71.5 189.5v213q0 125 71.5 189.5t210.5 64.5q167 0 250 -99l-52 -42q-70 83 -199 83q-104 0 -156.5 -49.5t-52.5 -146.5v-213q0 -98 53 -147.5t156 -49.5q90 0 143 35t53 94v64q0 45 -24 68.5t-69 23.5h-120v58h135q148 0 148 -143v-75
q0 -56 -32.5 -97t-93 -63.5t-141.5 -22.5q-137 0 -208.5 65.5zM185 851h299v-52h-299v52z" />
    <glyph glyph-name="H" unicode="H" horiz-adv-x="720" 
d="M95 700h72v-320h386v320h72v-700h-72v322h-386v-322h-72v700z" />
    <glyph glyph-name="Hbar" unicode="&#x126;" horiz-adv-x="718" 
d="M704 523h-80v-523h-72v322h-386v-322h-72v523h-80v52h80v125h72v-125h386v125h72v-125h80v-52zM552 523h-386v-143h386v143z" />
    <glyph glyph-name="uni1E2A" unicode="&#x1e2a;" horiz-adv-x="720" 
d="M95 700h72v-320h386v320h72v-700h-72v322h-386v-322h-72v700zM253.5 -181.5q-39.5 40.5 -39.5 108.5h49q3 -45 28.5 -71.5t68.5 -26.5t68.5 26.5t28.5 71.5h49q0 -68 -39.5 -108.5t-106.5 -40.5t-106.5 40.5z" />
    <glyph glyph-name="Hcircumflex" unicode="&#x124;" horiz-adv-x="720" 
d="M95 700h72v-320h386v320h72v-700h-72v322h-386v-322h-72v700zM277 843.5q37 43.5 58 84.5h49q22 -41 58.5 -84.5t66.5 -65.5h-65q-24 19 -50 48.5t-34 47.5q-9 -19 -35 -48t-50 -48h-65q30 22 67 65.5z" />
    <glyph glyph-name="uni1E24" unicode="&#x1e24;" horiz-adv-x="720" 
d="M95 700h72v-320h386v320h72v-700h-72v322h-386v-322h-72v700zM326.5 -148.5q-13.5 13.5 -13.5 33.5q0 19 13.5 33t33.5 14q19 0 33 -14t14 -33q0 -20 -14 -33.5t-33 -13.5q-20 0 -33.5 13.5z" />
    <glyph glyph-name="I" unicode="I" horiz-adv-x="262" 
d="M95 700h72v-700h-72v700z" />
    <glyph glyph-name="IJ" unicode="&#x132;" horiz-adv-x="746" 
d="M95 700h72v-700h-72v700zM341.5 8.5q-45.5 19.5 -86.5 65.5l43 45q31 -38 66.5 -55t85.5 -17q74 0 114 37.5t40 107.5v508h72v-510q0 -97 -58 -149t-166 -52q-65 0 -110.5 19.5z" />
    <glyph glyph-name="Iacute" unicode="&#xcd;" horiz-adv-x="262" 
d="M95 700h72v-700h-72v700zM183 923h74l-99 -145h-55z" />
    <glyph glyph-name="Ibreve" unicode="&#x12c;" horiz-adv-x="262" 
d="M95 700h72v-700h-72v700zM24.5 811.5q-39.5 38.5 -39.5 103.5h49q3 -42 28.5 -66.5t68.5 -24.5t68.5 24.5t28.5 66.5h49q0 -65 -39.5 -103.5t-106.5 -38.5t-106.5 38.5z" />
    <glyph glyph-name="uni01CF" unicode="&#x1cf;" horiz-adv-x="262" 
d="M95 700h72v-700h-72v700zM48 861.5q-37 43.5 -67 66.5h65q24 -19 50 -48.5t35 -48.5q8 19 34 48.5t50 48.5h65q-30 -23 -66.5 -66.5t-58.5 -83.5h-49q-21 40 -58 83.5z" />
    <glyph glyph-name="Icircumflex" unicode="&#xce;" horiz-adv-x="262" 
d="M95 700h72v-700h-72v700zM48 843.5q37 43.5 58 84.5h49q22 -41 58.5 -84.5t66.5 -65.5h-65q-24 19 -50 48.5t-34 47.5q-9 -19 -35 -48t-50 -48h-65q30 22 67 65.5z" />
    <glyph glyph-name="Idieresis" unicode="&#xcf;" horiz-adv-x="262" 
d="M95 700h72v-700h-72v700zM20.5 789.5q-12.5 12.5 -12.5 29.5t12.5 29.5t29.5 12.5t29 -12.5t12 -29.5t-12 -29.5t-29 -12.5t-29.5 12.5zM183 789.5q-12 12.5 -12 29.5t12 29.5t30 12.5q17 0 29.5 -12.5t12.5 -29.5t-12.5 -29.5t-29.5 -12.5q-18 0 -30 12.5z" />
    <glyph glyph-name="Idotaccent" unicode="&#x130;" horiz-adv-x="262" 
d="M95 700h72v-700h-72v700zM98 791q-14 14 -14 34q0 19 14 33t33 14t33 -14t14 -33q0 -20 -14 -34t-33 -14t-33 14z" />
    <glyph glyph-name="uni1ECA" unicode="&#x1eca;" horiz-adv-x="262" 
d="M95 700h72v-700h-72v700zM97.5 -148.5q-13.5 13.5 -13.5 33.5q0 19 13.5 33t33.5 14q19 0 33 -14t14 -33q0 -20 -14 -33.5t-33 -13.5q-20 0 -33.5 13.5z" />
    <glyph glyph-name="Igrave" unicode="&#xcc;" horiz-adv-x="262" 
d="M95 700h72v-700h-72v700zM2 923h74l81 -145h-56z" />
    <glyph glyph-name="uni1EC8" unicode="&#x1ec8;" horiz-adv-x="262" 
d="M95 700h72v-700h-72v700zM211.5 841q-20.5 -18 -57.5 -25v-38h-53v65q41 5 58 15.5t17 29.5q0 21 -12 30t-35 9t-50 -9l-12 40q31 14 68 14q44 0 70.5 -20t26.5 -59q0 -34 -20.5 -52z" />
    <glyph glyph-name="Imacron" unicode="&#x12a;" horiz-adv-x="262" 
d="M95 700h72v-700h-72v700zM-19 851h299v-52h-299v52z" />
    <glyph glyph-name="Iogonek" unicode="&#x12e;" horiz-adv-x="262" 
d="M237 -180q-33 -20 -72 -20q-56 0 -80 26t-24 59q0 60 52 115h-18v700h72v-700h-3q-22 -31 -33 -56t-11 -50q0 -24 14 -35.5t37 -11.5q21 0 54 14z" />
    <glyph glyph-name="Itilde" unicode="&#x128;" horiz-adv-x="262" 
d="M95 700h72v-700h-72v700zM2 859.5q23 29.5 67 29.5q21 0 37.5 -6.5t38.5 -19.5q18 -10 29 -14.5t23 -4.5q19 0 28 11.5t14 37.5h46q-3 -43 -25.5 -72.5t-62.5 -29.5q-21 0 -38.5 7t-37.5 19q-18 10 -29 14.5t-23 4.5q-21 0 -30.5 -12t-15.5 -39h-46q2 45 25 74.5z" />
    <glyph glyph-name="J" unicode="J" horiz-adv-x="521" 
d="M116.5 8.5q-45.5 19.5 -86.5 65.5l43 45q31 -38 66.5 -55t85.5 -17q74 0 114 37.5t40 107.5v508h72v-510q0 -97 -58 -149t-166 -52q-65 0 -110.5 19.5z" />
    <glyph glyph-name="Jcircumflex" unicode="&#x134;" horiz-adv-x="521" 
d="M116.5 8.5q-45.5 19.5 -86.5 65.5l43 45q31 -38 66.5 -55t85.5 -17q74 0 114 37.5t40 107.5v508h72v-510q0 -97 -58 -149t-166 -52q-65 0 -110.5 19.5zM332 843.5q37 43.5 58 84.5h49q22 -41 58.5 -84.5t66.5 -65.5h-65q-24 19 -50 48.5t-34 47.5q-9 -19 -35 -48t-50 -48
h-65q30 22 67 65.5z" />
    <glyph glyph-name="K" unicode="K" horiz-adv-x="665" 
d="M487 381q40 -40 68 -132l70 -249h-72l-69 243q-14 49 -32.5 76.5t-49.5 40.5t-83 17l-152 -157v-220h-72v700h72v-393l376 393h89l-260 -269q75 -10 115 -50z" />
    <glyph glyph-name="uni0136" unicode="&#x136;" horiz-adv-x="665" 
d="M487 381q40 -40 68 -132l70 -249h-72l-69 243q-14 49 -32.5 76.5t-49.5 40.5t-83 17l-152 -157v-220h-72v700h72v-393l376 393h89l-260 -269q75 -10 115 -50zM390.5 -85.5q13.5 -16.5 13.5 -44.5q0 -41 -20 -74.5t-54 -59.5l-23 22q47 34 53 79q-10 -6 -24 -6
q-17 0 -26.5 11.5t-9.5 31.5q0 21 15.5 39t37.5 18q24 0 37.5 -16.5z" />
    <glyph glyph-name="L" unicode="L" horiz-adv-x="556" 
d="M125.5 51.5q-55.5 51.5 -55.5 157.5v491h72v-491q0 -77 37.5 -114t116.5 -37h225v-58h-225q-115 0 -170.5 51.5z" />
    <glyph glyph-name="Lacute" unicode="&#x139;" horiz-adv-x="556" 
d="M125.5 51.5q-55.5 51.5 -55.5 157.5v491h72v-491q0 -77 37.5 -114t116.5 -37h225v-58h-225q-115 0 -170.5 51.5zM158 923h74l-99 -145h-55z" />
    <glyph glyph-name="Lcaron" unicode="&#x13d;" horiz-adv-x="561" 
d="M125.5 51.5q-55.5 51.5 -55.5 157.5v491h72v-491q0 -77 37.5 -114t116.5 -37h225v-58h-225q-115 0 -170.5 51.5zM462 703q13 -17 13 -45q0 -81 -74 -140l-22 23q48 36 52 84q-8 -5 -23 -5q-17 0 -26.5 11.5t-9.5 31.5q0 21 15.5 39t37.5 18q24 0 37 -17z" />
    <glyph glyph-name="uni013B" unicode="&#x13b;" horiz-adv-x="556" 
d="M125.5 51.5q-55.5 51.5 -55.5 157.5v491h72v-491q0 -77 37.5 -114t116.5 -37h225v-58h-225q-115 0 -170.5 51.5zM347.5 -85.5q13.5 -16.5 13.5 -44.5q0 -41 -20 -74.5t-54 -59.5l-23 22q47 34 53 79q-10 -6 -24 -6q-17 0 -26.5 11.5t-9.5 31.5q0 21 15.5 39t37.5 18
q24 0 37.5 -16.5z" />
    <glyph glyph-name="Ldot" unicode="&#x13f;" horiz-adv-x="556" 
d="M125.5 51.5q-55.5 51.5 -55.5 157.5v491h72v-491q0 -77 37.5 -114t116.5 -37h225v-58h-225q-115 0 -170.5 51.5zM336.5 286q-17.5 17 -17.5 42q0 26 17.5 43t42.5 17q24 0 41.5 -17.5t17.5 -42.5t-17.5 -42t-41.5 -17q-25 0 -42.5 17z" />
    <glyph glyph-name="uni1E36" unicode="&#x1e36;" horiz-adv-x="556" 
d="M125.5 51.5q-55.5 51.5 -55.5 157.5v491h72v-491q0 -77 37.5 -114t116.5 -37h225v-58h-225q-115 0 -170.5 51.5zM276.5 -148.5q-13.5 13.5 -13.5 33.5q0 19 13.5 33t33.5 14q19 0 33 -14t14 -33q0 -20 -14 -33.5t-33 -13.5q-20 0 -33.5 13.5z" />
    <glyph glyph-name="uni1E38" unicode="&#x1e38;" horiz-adv-x="556" 
d="M125.5 51.5q-55.5 51.5 -55.5 157.5v491h72v-491q0 -77 37.5 -114t116.5 -37h225v-58h-225q-115 0 -170.5 51.5zM276.5 -148.5q-13.5 13.5 -13.5 33.5q0 19 13.5 33t33.5 14q19 0 33 -14t14 -33q0 -20 -14 -33.5t-33 -13.5q-20 0 -33.5 13.5zM-44 851h299v-52h-299v52z
" />
    <glyph glyph-name="uni1E3A" unicode="&#x1e3a;" horiz-adv-x="556" 
d="M125.5 51.5q-55.5 51.5 -55.5 157.5v491h72v-491q0 -77 37.5 -114t116.5 -37h225v-58h-225q-115 0 -170.5 51.5zM160 -81h299v-53h-299v53z" />
    <glyph glyph-name="Lslash" unicode="&#x141;" horiz-adv-x="565" 
d="M530 58v-58h-225q-115 0 -170.5 51.5t-55.5 157.5v64l-79 -35v59l79 36v367h72v-335l234 106v-60l-234 -105v-97q0 -77 37.5 -114t116.5 -37h225z" />
    <glyph glyph-name="M" unicode="M" horiz-adv-x="822" 
d="M95 700h43q44 0 71.5 -19.5t53.5 -69.5l148 -283l148 283q26 50 53.5 69.5t71.5 19.5h43v-700h-68v628q-14 -2 -24.5 -10.5t-21.5 -29.5l-202 -380l-202 380q-12 22 -22 30.5t-24 9.5v-628h-68v700z" />
    <glyph glyph-name="uni1E42" unicode="&#x1e42;" horiz-adv-x="822" 
d="M95 700h43q44 0 71.5 -19.5t53.5 -69.5l148 -283l148 283q26 50 53.5 69.5t71.5 19.5h43v-700h-68v628q-14 -2 -24.5 -10.5t-21.5 -29.5l-202 -380l-202 380q-12 22 -22 30.5t-24 9.5v-628h-68v700zM377.5 -148.5q-13.5 13.5 -13.5 33.5q0 19 13.5 33t33.5 14
q19 0 33 -14t14 -33q0 -20 -14 -33.5t-33 -13.5q-20 0 -33.5 13.5z" />
    <glyph glyph-name="N" unicode="N" horiz-adv-x="717" 
d="M634 700v-596q0 -53 -22 -78.5t-68 -25.5h-51l-329 592v-592h-69v700h86l350 -637h7q15 0 21 11t6 39v587h69z" />
    <glyph glyph-name="Nacute" unicode="&#x143;" horiz-adv-x="717" 
d="M634 700v-596q0 -53 -22 -78.5t-68 -25.5h-51l-329 592v-592h-69v700h86l350 -637h7q15 0 21 11t6 39v587h69zM413 923h74l-99 -145h-55z" />
    <glyph glyph-name="Ncaron" unicode="&#x147;" horiz-adv-x="717" 
d="M634 700v-596q0 -53 -22 -78.5t-68 -25.5h-51l-329 592v-592h-69v700h86l350 -637h7q15 0 21 11t6 39v587h69zM278 861.5q-37 43.5 -67 66.5h65q24 -19 50 -48.5t35 -48.5q8 19 34 48.5t50 48.5h65q-30 -23 -66.5 -66.5t-58.5 -83.5h-49q-21 40 -58 83.5z" />
    <glyph glyph-name="uni0145" unicode="&#x145;" horiz-adv-x="717" 
d="M634 700v-596q0 -53 -22 -78.5t-68 -25.5h-51l-329 592v-592h-69v700h86l350 -637h7q15 0 21 11t6 39v587h69zM391.5 -85.5q13.5 -16.5 13.5 -44.5q0 -41 -20 -74.5t-54 -59.5l-23 22q47 34 53 79q-10 -6 -24 -6q-17 0 -26.5 11.5t-9.5 31.5q0 21 15.5 39t37.5 18
q24 0 37.5 -16.5z" />
    <glyph glyph-name="uni1E44" unicode="&#x1e44;" horiz-adv-x="717" 
d="M634 700v-596q0 -53 -22 -78.5t-68 -25.5h-51l-329 592v-592h-69v700h86l350 -637h7q15 0 21 11t6 39v587h69zM328 791q-14 14 -14 34q0 19 14 33t33 14t33 -14t14 -33q0 -20 -14 -34t-33 -14t-33 14z" />
    <glyph glyph-name="uni1E46" unicode="&#x1e46;" horiz-adv-x="717" 
d="M634 700v-596q0 -53 -22 -78.5t-68 -25.5h-51l-329 592v-592h-69v700h86l350 -637h7q15 0 21 11t6 39v587h69zM320.5 -148.5q-13.5 13.5 -13.5 33.5q0 19 13.5 33t33.5 14q19 0 33 -14t14 -33q0 -20 -14 -33.5t-33 -13.5q-20 0 -33.5 13.5z" />
    <glyph glyph-name="Eng" unicode="&#x14a;" horiz-adv-x="717" 
d="M429 -167h47q45 0 67 26.5t22 81.5v61q-14 -2 -21 -2h-51l-329 592v-592h-69v700h86l350 -637h7q15 0 21 11t6 39v587h69v-759q0 -85 -38.5 -125.5t-119.5 -40.5h-47v58z" />
    <glyph glyph-name="uni1E48" unicode="&#x1e48;" horiz-adv-x="717" 
d="M634 700v-596q0 -53 -22 -78.5t-68 -25.5h-51l-329 592v-592h-69v700h86l350 -637h7q15 0 21 11t6 39v587h69zM204 -81h299v-53h-299v53z" />
    <glyph glyph-name="Ntilde" unicode="&#xd1;" horiz-adv-x="717" 
d="M634 700v-596q0 -53 -22 -78.5t-68 -25.5h-51l-329 592v-592h-69v700h86l350 -637h7q15 0 21 11t6 39v587h69zM232 859.5q23 29.5 67 29.5q21 0 37.5 -6.5t38.5 -19.5q18 -10 29 -14.5t23 -4.5q19 0 28 11.5t14 37.5h46q-3 -43 -25.5 -72.5t-62.5 -29.5q-21 0 -38.5 7
t-37.5 19q-18 10 -29 14.5t-23 4.5q-21 0 -30.5 -12t-15.5 -39h-46q2 45 25 74.5z" />
    <glyph glyph-name="O" unicode="O" horiz-adv-x="680" 
d="M136 54.5q-71 65.5 -71 189.5v212q0 124 71 189.5t204 65.5t204 -65.5t71 -189.5v-212q0 -124 -71 -189.5t-204 -65.5t-204 65.5zM490.5 98q52.5 51 52.5 146v212q0 95 -52.5 146t-150.5 51t-150.5 -51t-52.5 -146v-212q0 -95 52.5 -146t150.5 -51t150.5 51z" />
    <glyph glyph-name="Oacute" unicode="&#xd3;" horiz-adv-x="680" 
d="M136 54.5q-71 65.5 -71 189.5v212q0 124 71 189.5t204 65.5t204 -65.5t71 -189.5v-212q0 -124 -71 -189.5t-204 -65.5t-204 65.5zM490.5 98q52.5 51 52.5 146v212q0 95 -52.5 146t-150.5 51t-150.5 -51t-52.5 -146v-212q0 -95 52.5 -146t150.5 -51t150.5 51zM392 923h74
l-99 -145h-55z" />
    <glyph glyph-name="Obreve" unicode="&#x14e;" horiz-adv-x="680" 
d="M136 54.5q-71 65.5 -71 189.5v212q0 124 71 189.5t204 65.5t204 -65.5t71 -189.5v-212q0 -124 -71 -189.5t-204 -65.5t-204 65.5zM490.5 98q52.5 51 52.5 146v212q0 95 -52.5 146t-150.5 51t-150.5 -51t-52.5 -146v-212q0 -95 52.5 -146t150.5 -51t150.5 51zM233.5 811.5
q-39.5 38.5 -39.5 103.5h49q3 -42 28.5 -66.5t68.5 -24.5t68.5 24.5t28.5 66.5h49q0 -65 -39.5 -103.5t-106.5 -38.5t-106.5 38.5z" />
    <glyph glyph-name="uni01D1" unicode="&#x1d1;" horiz-adv-x="680" 
d="M136 54.5q-71 65.5 -71 189.5v212q0 124 71 189.5t204 65.5t204 -65.5t71 -189.5v-212q0 -124 -71 -189.5t-204 -65.5t-204 65.5zM490.5 98q52.5 51 52.5 146v212q0 95 -52.5 146t-150.5 51t-150.5 -51t-52.5 -146v-212q0 -95 52.5 -146t150.5 -51t150.5 51zM257 861.5
q-37 43.5 -67 66.5h65q24 -19 50 -48.5t35 -48.5q8 19 34 48.5t50 48.5h65q-30 -23 -66.5 -66.5t-58.5 -83.5h-49q-21 40 -58 83.5z" />
    <glyph glyph-name="Ocircumflex" unicode="&#xd4;" horiz-adv-x="680" 
d="M136 54.5q-71 65.5 -71 189.5v212q0 124 71 189.5t204 65.5t204 -65.5t71 -189.5v-212q0 -124 -71 -189.5t-204 -65.5t-204 65.5zM490.5 98q52.5 51 52.5 146v212q0 95 -52.5 146t-150.5 51t-150.5 -51t-52.5 -146v-212q0 -95 52.5 -146t150.5 -51t150.5 51zM257 843.5
q37 43.5 58 84.5h49q22 -41 58.5 -84.5t66.5 -65.5h-65q-24 19 -50 48.5t-34 47.5q-9 -19 -35 -48t-50 -48h-65q30 22 67 65.5z" />
    <glyph glyph-name="uni1ED0" unicode="&#x1ed0;" horiz-adv-x="680" 
d="M136 54.5q-71 65.5 -71 189.5v212q0 124 71 189.5t204 65.5t204 -65.5t71 -189.5v-212q0 -124 -71 -189.5t-204 -65.5t-204 65.5zM490.5 98q52.5 51 52.5 146v212q0 95 -52.5 146t-150.5 51t-150.5 -51t-52.5 -146v-212q0 -95 52.5 -146t150.5 -51t150.5 51zM507 976h70
l-78 -111h-55zM257 843.5q37 43.5 58 84.5h49q22 -41 58.5 -84.5t66.5 -65.5h-65q-24 19 -50 48.5t-34 47.5q-9 -19 -35 -48t-50 -48h-65q30 22 67 65.5z" />
    <glyph glyph-name="uni1ED8" unicode="&#x1ed8;" horiz-adv-x="680" 
d="M136 54.5q-71 65.5 -71 189.5v212q0 124 71 189.5t204 65.5t204 -65.5t71 -189.5v-212q0 -124 -71 -189.5t-204 -65.5t-204 65.5zM490.5 98q52.5 51 52.5 146v212q0 95 -52.5 146t-150.5 51t-150.5 -51t-52.5 -146v-212q0 -95 52.5 -146t150.5 -51t150.5 51z
M306.5 -148.5q-13.5 13.5 -13.5 33.5q0 19 13.5 33t33.5 14q19 0 33 -14t14 -33q0 -20 -14 -33.5t-33 -13.5q-20 0 -33.5 13.5zM257 843.5q37 43.5 58 84.5h49q22 -41 58.5 -84.5t66.5 -65.5h-65q-24 19 -50 48.5t-34 47.5q-9 -19 -35 -48t-50 -48h-65q30 22 67 65.5z" />
    <glyph glyph-name="uni1ED2" unicode="&#x1ed2;" horiz-adv-x="680" 
d="M136 54.5q-71 65.5 -71 189.5v212q0 124 71 189.5t204 65.5t204 -65.5t71 -189.5v-212q0 -124 -71 -189.5t-204 -65.5t-204 65.5zM490.5 98q52.5 51 52.5 146v212q0 95 -52.5 146t-150.5 51t-150.5 -51t-52.5 -146v-212q0 -95 52.5 -146t150.5 -51t150.5 51zM424 976h70
l63 -111h-55zM257 843.5q37 43.5 58 84.5h49q22 -41 58.5 -84.5t66.5 -65.5h-65q-24 19 -50 48.5t-34 47.5q-9 -19 -35 -48t-50 -48h-65q30 22 67 65.5z" />
    <glyph glyph-name="uni1ED4" unicode="&#x1ed4;" horiz-adv-x="680" 
d="M136 54.5q-71 65.5 -71 189.5v212q0 124 71 189.5t204 65.5t204 -65.5t71 -189.5v-212q0 -124 -71 -189.5t-204 -65.5t-204 65.5zM490.5 98q52.5 51 52.5 146v212q0 95 -52.5 146t-150.5 51t-150.5 -51t-52.5 -146v-212q0 -95 52.5 -146t150.5 -51t150.5 51zM544 923.5
q-18 -15.5 -51 -22.5v-35h-50v62q39 5 54.5 12.5t15.5 24.5q0 19 -10.5 25t-33.5 6q-21 0 -48 -9l-11 39q29 12 65 12q87 0 87 -68q0 -31 -18 -46.5zM422.5 843.5q36.5 -43.5 66.5 -65.5h-65q-24 19 -50 48.5t-34 47.5q-9 -19 -35 -48t-50 -48h-65q30 22 67 65.5t58 84.5h49
q22 -41 58.5 -84.5z" />
    <glyph glyph-name="uni1ED6" unicode="&#x1ed6;" horiz-adv-x="680" 
d="M136 54.5q-71 65.5 -71 189.5v212q0 124 71 189.5t204 65.5t204 -65.5t71 -189.5v-212q0 -124 -71 -189.5t-204 -65.5t-204 65.5zM490.5 98q52.5 51 52.5 146v212q0 95 -52.5 146t-150.5 51t-150.5 -51t-52.5 -146v-212q0 -95 52.5 -146t150.5 -51t150.5 51zM220 1026
q21 27 62 27q19 0 34.5 -6t34.5 -17q12 -7 25 -12.5t24 -5.5q18 0 26 10.5t13 34.5h42q-2 -40 -23 -67t-58 -27q-19 0 -35 6t-36 17q-29 18 -47 18q-19 0 -28 -11t-15 -36h-42q2 42 23 69zM257 843.5q37 43.5 58 84.5h49q22 -41 58.5 -84.5t66.5 -65.5h-65q-24 19 -50 48.5
t-34 47.5q-9 -19 -35 -48t-50 -48h-65q30 22 67 65.5z" />
    <glyph glyph-name="Odieresis" unicode="&#xd6;" horiz-adv-x="680" 
d="M136 54.5q-71 65.5 -71 189.5v212q0 124 71 189.5t204 65.5t204 -65.5t71 -189.5v-212q0 -124 -71 -189.5t-204 -65.5t-204 65.5zM490.5 98q52.5 51 52.5 146v212q0 95 -52.5 146t-150.5 51t-150.5 -51t-52.5 -146v-212q0 -95 52.5 -146t150.5 -51t150.5 51zM229.5 789.5
q-12.5 12.5 -12.5 29.5t12.5 29.5t29.5 12.5t29 -12.5t12 -29.5t-12 -29.5t-29 -12.5t-29.5 12.5zM392 789.5q-12 12.5 -12 29.5t12 29.5t30 12.5q17 0 29.5 -12.5t12.5 -29.5t-12.5 -29.5t-29.5 -12.5q-18 0 -30 12.5z" />
    <glyph glyph-name="uni1ECC" unicode="&#x1ecc;" horiz-adv-x="680" 
d="M136 54.5q-71 65.5 -71 189.5v212q0 124 71 189.5t204 65.5t204 -65.5t71 -189.5v-212q0 -124 -71 -189.5t-204 -65.5t-204 65.5zM490.5 98q52.5 51 52.5 146v212q0 95 -52.5 146t-150.5 51t-150.5 -51t-52.5 -146v-212q0 -95 52.5 -146t150.5 -51t150.5 51z
M306.5 -148.5q-13.5 13.5 -13.5 33.5q0 19 13.5 33t33.5 14q19 0 33 -14t14 -33q0 -20 -14 -33.5t-33 -13.5q-20 0 -33.5 13.5z" />
    <glyph glyph-name="Ograve" unicode="&#xd2;" horiz-adv-x="680" 
d="M136 54.5q-71 65.5 -71 189.5v212q0 124 71 189.5t204 65.5t204 -65.5t71 -189.5v-212q0 -124 -71 -189.5t-204 -65.5t-204 65.5zM490.5 98q52.5 51 52.5 146v212q0 95 -52.5 146t-150.5 51t-150.5 -51t-52.5 -146v-212q0 -95 52.5 -146t150.5 -51t150.5 51zM211 923h74
l81 -145h-56z" />
    <glyph glyph-name="uni1ECE" unicode="&#x1ece;" horiz-adv-x="680" 
d="M136 54.5q-71 65.5 -71 189.5v212q0 124 71 189.5t204 65.5t204 -65.5t71 -189.5v-212q0 -124 -71 -189.5t-204 -65.5t-204 65.5zM490.5 98q52.5 51 52.5 146v212q0 95 -52.5 146t-150.5 51t-150.5 -51t-52.5 -146v-212q0 -95 52.5 -146t150.5 -51t150.5 51zM420.5 841
q-20.5 -18 -57.5 -25v-38h-53v65q41 5 58 15.5t17 29.5q0 21 -12 30t-35 9t-50 -9l-12 40q31 14 68 14q44 0 70.5 -20t26.5 -59q0 -34 -20.5 -52z" />
    <glyph glyph-name="Ohorn" unicode="&#x1a0;" horiz-adv-x="689" 
d="M689 606q-28 -41 -89 -49q15 -45 15 -101v-212q0 -124 -71 -189.5t-204 -65.5t-204 65.5t-71 189.5v212q0 124 71 189.5t204 65.5q89 0 150.5 -29.5t92.5 -86.5q40 6 56.5 38t16.5 97h63q-2 -83 -30 -124zM543 456q0 95 -52.5 146t-150.5 51t-150.5 -51t-52.5 -146v-212
q0 -95 52.5 -146t150.5 -51t150.5 51t52.5 146v212z" />
    <glyph glyph-name="uni1EDA" unicode="&#x1eda;" horiz-adv-x="689" 
d="M689 606q-28 -41 -89 -49q15 -45 15 -101v-212q0 -124 -71 -189.5t-204 -65.5t-204 65.5t-71 189.5v212q0 124 71 189.5t204 65.5q89 0 150.5 -29.5t92.5 -86.5q40 6 56.5 38t16.5 97h63q-2 -83 -30 -124zM543 456q0 95 -52.5 146t-150.5 51t-150.5 -51t-52.5 -146v-212
q0 -95 52.5 -146t150.5 -51t150.5 51t52.5 146v212zM392 923h74l-99 -145h-55z" />
    <glyph glyph-name="uni1EE2" unicode="&#x1ee2;" horiz-adv-x="689" 
d="M689 606q-28 -41 -89 -49q15 -45 15 -101v-212q0 -124 -71 -189.5t-204 -65.5t-204 65.5t-71 189.5v212q0 124 71 189.5t204 65.5q89 0 150.5 -29.5t92.5 -86.5q40 6 56.5 38t16.5 97h63q-2 -83 -30 -124zM543 456q0 95 -52.5 146t-150.5 51t-150.5 -51t-52.5 -146v-212
q0 -95 52.5 -146t150.5 -51t150.5 51t52.5 146v212zM306.5 -148.5q-13.5 13.5 -13.5 33.5q0 19 13.5 33t33.5 14q19 0 33 -14t14 -33q0 -20 -14 -33.5t-33 -13.5q-20 0 -33.5 13.5z" />
    <glyph glyph-name="uni1EDC" unicode="&#x1edc;" horiz-adv-x="689" 
d="M689 606q-28 -41 -89 -49q15 -45 15 -101v-212q0 -124 -71 -189.5t-204 -65.5t-204 65.5t-71 189.5v212q0 124 71 189.5t204 65.5q89 0 150.5 -29.5t92.5 -86.5q40 6 56.5 38t16.5 97h63q-2 -83 -30 -124zM543 456q0 95 -52.5 146t-150.5 51t-150.5 -51t-52.5 -146v-212
q0 -95 52.5 -146t150.5 -51t150.5 51t52.5 146v212zM211 923h74l81 -145h-56z" />
    <glyph glyph-name="uni1EDE" unicode="&#x1ede;" horiz-adv-x="689" 
d="M689 606q-28 -41 -89 -49q15 -45 15 -101v-212q0 -124 -71 -189.5t-204 -65.5t-204 65.5t-71 189.5v212q0 124 71 189.5t204 65.5q89 0 150.5 -29.5t92.5 -86.5q40 6 56.5 38t16.5 97h63q-2 -83 -30 -124zM543 456q0 95 -52.5 146t-150.5 51t-150.5 -51t-52.5 -146v-212
q0 -95 52.5 -146t150.5 -51t150.5 51t52.5 146v212zM420.5 841q-20.5 -18 -57.5 -25v-38h-53v65q41 5 58 15.5t17 29.5q0 21 -12 30t-35 9t-50 -9l-12 40q31 14 68 14q44 0 70.5 -20t26.5 -59q0 -34 -20.5 -52z" />
    <glyph glyph-name="uni1EE0" unicode="&#x1ee0;" horiz-adv-x="689" 
d="M689 606q-28 -41 -89 -49q15 -45 15 -101v-212q0 -124 -71 -189.5t-204 -65.5t-204 65.5t-71 189.5v212q0 124 71 189.5t204 65.5q89 0 150.5 -29.5t92.5 -86.5q40 6 56.5 38t16.5 97h63q-2 -83 -30 -124zM543 456q0 95 -52.5 146t-150.5 51t-150.5 -51t-52.5 -146v-212
q0 -95 52.5 -146t150.5 -51t150.5 51t52.5 146v212zM211 859.5q23 29.5 67 29.5q21 0 37.5 -6.5t38.5 -19.5q18 -10 29 -14.5t23 -4.5q19 0 28 11.5t14 37.5h46q-3 -43 -25.5 -72.5t-62.5 -29.5q-21 0 -38.5 7t-37.5 19q-18 10 -29 14.5t-23 4.5q-21 0 -30.5 -12t-15.5 -39
h-46q2 45 25 74.5z" />
    <glyph glyph-name="Ohungarumlaut" unicode="&#x150;" horiz-adv-x="680" 
d="M136 54.5q-71 65.5 -71 189.5v212q0 124 71 189.5t204 65.5t204 -65.5t71 -189.5v-212q0 -124 -71 -189.5t-204 -65.5t-204 65.5zM490.5 98q52.5 51 52.5 146v212q0 95 -52.5 146t-150.5 51t-150.5 -51t-52.5 -146v-212q0 -95 52.5 -146t150.5 -51t150.5 51zM299 923h67
l-81 -145h-53zM462 923h67l-82 -145h-52z" />
    <glyph glyph-name="Omacron" unicode="&#x14c;" horiz-adv-x="680" 
d="M136 54.5q-71 65.5 -71 189.5v212q0 124 71 189.5t204 65.5t204 -65.5t71 -189.5v-212q0 -124 -71 -189.5t-204 -65.5t-204 65.5zM490.5 98q52.5 51 52.5 146v212q0 95 -52.5 146t-150.5 51t-150.5 -51t-52.5 -146v-212q0 -95 52.5 -146t150.5 -51t150.5 51zM190 851h299
v-52h-299v52z" />
    <glyph glyph-name="Oslash" unicode="&#xd8;" horiz-adv-x="680" 
d="M615 456v-212q0 -124 -71 -189.5t-204 -65.5q-79 0 -138 24l-42 -83h-59l55 108q-91 65 -91 206v212q0 124 71 189.5t204 65.5q88 0 147 -28l44 87h59l-58 -114q83 -66 83 -200zM188 100l269 526q-46 27 -117 27q-98 0 -150.5 -51t-52.5 -146v-212q0 -93 51 -144z
M543 456q0 87 -44 137l-268 -524q47 -22 109 -22q98 0 150.5 51t52.5 146v212z" />
    <glyph glyph-name="Oslashacute" unicode="&#x1fe;" horiz-adv-x="680" 
d="M615 456v-212q0 -124 -71 -189.5t-204 -65.5q-79 0 -138 24l-42 -83h-59l55 108q-91 65 -91 206v212q0 124 71 189.5t204 65.5q88 0 147 -28l44 87h59l-58 -114q83 -66 83 -200zM188 100l269 526q-46 27 -117 27q-98 0 -150.5 -51t-52.5 -146v-212q0 -93 51 -144z
M543 456q0 87 -44 137l-268 -524q47 -22 109 -22q98 0 150.5 51t52.5 146v212zM392 923h74l-99 -145h-55z" />
    <glyph glyph-name="Otilde" unicode="&#xd5;" horiz-adv-x="680" 
d="M136 54.5q-71 65.5 -71 189.5v212q0 124 71 189.5t204 65.5t204 -65.5t71 -189.5v-212q0 -124 -71 -189.5t-204 -65.5t-204 65.5zM490.5 98q52.5 51 52.5 146v212q0 95 -52.5 146t-150.5 51t-150.5 -51t-52.5 -146v-212q0 -95 52.5 -146t150.5 -51t150.5 51zM211 859.5
q23 29.5 67 29.5q21 0 37.5 -6.5t38.5 -19.5q18 -10 29 -14.5t23 -4.5q19 0 28 11.5t14 37.5h46q-3 -43 -25.5 -72.5t-62.5 -29.5q-21 0 -38.5 7t-37.5 19q-18 10 -29 14.5t-23 4.5q-21 0 -30.5 -12t-15.5 -39h-46q2 45 25 74.5z" />
    <glyph glyph-name="OE" unicode="&#x152;" horiz-adv-x="1064" 
d="M1019 58v-58h-247q-149 0 -201 85q-69 -96 -231 -96q-133 0 -204 65.5t-71 189.5v212q0 124 71 189.5t204 65.5q162 0 231 -96q52 85 201 85h241v-58h-241q-81 0 -119 -37t-38 -114v-112h347v-58h-347v-112q0 -77 38 -114t119 -37h247zM490 98q52 51 52 146v212
q0 95 -52 146t-150 51t-150 -51t-52 -146v-212q0 -95 52 -146t150 -51t150 51z" />
    <glyph glyph-name="P" unicode="P" horiz-adv-x="627" 
d="M95 700h297q100 0 152.5 -52t52.5 -151q0 -100 -52.5 -152t-152.5 -52h-225v-293h-72v700zM386 351q66 0 102.5 38.5t36.5 107.5q0 68 -36.5 106.5t-102.5 38.5h-219v-291h219z" />
    <glyph glyph-name="Thorn" unicode="&#xde;" horiz-adv-x="627" 
d="M95 700h72v-142h225q98 0 151.5 -53t53.5 -150q0 -98 -53.5 -151t-151.5 -53h-225v-151h-72v700zM386 209q66 0 102.5 38.5t36.5 107.5q0 68 -36.5 106.5t-102.5 38.5h-219v-291h219z" />
    <glyph glyph-name="Q" unicode="Q" horiz-adv-x="680" 
d="M560 71q-55 -64 -159 -78q24 -27 66 -42t97 -17v-63q-90 2 -147.5 31t-86.5 87q-129 3 -197 68.5t-68 186.5v212q0 124 71 189.5t204 65.5t204 -65.5t71 -189.5v-212q0 -109 -55 -173zM543 456q0 95 -52.5 146t-150.5 51t-150.5 -51t-52.5 -146v-212q0 -95 52.5 -146
t150.5 -51t150.5 51t52.5 146v212z" />
    <glyph glyph-name="R" unicode="R" horiz-adv-x="664" 
d="M621 0h-77l-48 180q-14 52 -32 81t-49.5 42.5t-85.5 13.5h-162v-317h-72v700h300q98 0 149.5 -49t51.5 -138q0 -75 -35.5 -119.5t-100.5 -55.5q44 -16 68.5 -53t43.5 -105zM387 375q65 0 101 35t36 98q0 64 -36 99t-101 35h-220v-267h220z" />
    <glyph glyph-name="Racute" unicode="&#x154;" horiz-adv-x="664" 
d="M621 0h-77l-48 180q-14 52 -32 81t-49.5 42.5t-85.5 13.5h-162v-317h-72v700h300q98 0 149.5 -49t51.5 -138q0 -75 -35.5 -119.5t-100.5 -55.5q44 -16 68.5 -53t43.5 -105zM387 375q65 0 101 35t36 98q0 64 -36 99t-101 35h-220v-267h220zM380 923h74l-99 -145h-55z" />
    <glyph glyph-name="Rcaron" unicode="&#x158;" horiz-adv-x="664" 
d="M621 0h-77l-48 180q-14 52 -32 81t-49.5 42.5t-85.5 13.5h-162v-317h-72v700h300q98 0 149.5 -49t51.5 -138q0 -75 -35.5 -119.5t-100.5 -55.5q44 -16 68.5 -53t43.5 -105zM387 375q65 0 101 35t36 98q0 64 -36 99t-101 35h-220v-267h220zM245 861.5q-37 43.5 -67 66.5
h65q24 -19 50 -48.5t35 -48.5q8 19 34 48.5t50 48.5h65q-30 -23 -66.5 -66.5t-58.5 -83.5h-49q-21 40 -58 83.5z" />
    <glyph glyph-name="uni0156" unicode="&#x156;" horiz-adv-x="664" 
d="M621 0h-77l-48 180q-14 52 -32 81t-49.5 42.5t-85.5 13.5h-162v-317h-72v700h300q98 0 149.5 -49t51.5 -138q0 -75 -35.5 -119.5t-100.5 -55.5q44 -16 68.5 -53t43.5 -105zM387 375q65 0 101 35t36 98q0 64 -36 99t-101 35h-220v-267h220zM370.5 -85.5
q13.5 -16.5 13.5 -44.5q0 -41 -20 -74.5t-54 -59.5l-23 22q47 34 53 79q-10 -6 -24 -6q-17 0 -26.5 11.5t-9.5 31.5q0 21 15.5 39t37.5 18q24 0 37.5 -16.5z" />
    <glyph glyph-name="uni1E5A" unicode="&#x1e5a;" horiz-adv-x="664" 
d="M621 0h-77l-48 180q-14 52 -32 81t-49.5 42.5t-85.5 13.5h-162v-317h-72v700h300q98 0 149.5 -49t51.5 -138q0 -75 -35.5 -119.5t-100.5 -55.5q44 -16 68.5 -53t43.5 -105zM387 375q65 0 101 35t36 98q0 64 -36 99t-101 35h-220v-267h220zM299.5 -148.5
q-13.5 13.5 -13.5 33.5q0 19 13.5 33t33.5 14q19 0 33 -14t14 -33q0 -20 -14 -33.5t-33 -13.5q-20 0 -33.5 13.5z" />
    <glyph glyph-name="uni1E5C" unicode="&#x1e5c;" horiz-adv-x="664" 
d="M621 0h-77l-48 180q-14 52 -32 81t-49.5 42.5t-85.5 13.5h-162v-317h-72v700h300q98 0 149.5 -49t51.5 -138q0 -75 -35.5 -119.5t-100.5 -55.5q44 -16 68.5 -53t43.5 -105zM387 375q65 0 101 35t36 98q0 64 -36 99t-101 35h-220v-267h220zM299.5 -148.5
q-13.5 13.5 -13.5 33.5q0 19 13.5 33t33.5 14q19 0 33 -14t14 -33q0 -20 -14 -33.5t-33 -13.5q-20 0 -33.5 13.5zM178 851h299v-52h-299v52z" />
    <glyph glyph-name="uni1E5E" unicode="&#x1e5e;" horiz-adv-x="664" 
d="M621 0h-77l-48 180q-14 52 -32 81t-49.5 42.5t-85.5 13.5h-162v-317h-72v700h300q98 0 149.5 -49t51.5 -138q0 -75 -35.5 -119.5t-100.5 -55.5q44 -16 68.5 -53t43.5 -105zM387 375q65 0 101 35t36 98q0 64 -36 99t-101 35h-220v-267h220zM183 -81h299v-53h-299v53z" />
    <glyph glyph-name="S" unicode="S" horiz-adv-x="618" 
d="M154.5 16.5q-59.5 27.5 -109.5 93.5l49 43q43 -58 89.5 -82t118.5 -24q94 0 145.5 36t51.5 101q0 41 -19 65t-67 41.5t-142 36.5q-103 20 -152.5 66t-49.5 123q0 91 65.5 143t180.5 52q82 0 142 -28.5t93 -83.5l-49 -40q-31 46 -78.5 70t-109.5 24q-79 0 -125.5 -36
t-46.5 -97q0 -54 41 -85.5t135 -50.5q99 -20 153.5 -45t77.5 -60.5t23 -92.5q0 -96 -68 -146.5t-197 -50.5q-92 0 -151.5 27.5z" />
    <glyph glyph-name="Sacute" unicode="&#x15a;" horiz-adv-x="618" 
d="M154.5 16.5q-59.5 27.5 -109.5 93.5l49 43q43 -58 89.5 -82t118.5 -24q94 0 145.5 36t51.5 101q0 41 -19 65t-67 41.5t-142 36.5q-103 20 -152.5 66t-49.5 123q0 91 65.5 143t180.5 52q82 0 142 -28.5t93 -83.5l-49 -40q-31 46 -78.5 70t-109.5 24q-79 0 -125.5 -36
t-46.5 -97q0 -54 41 -85.5t135 -50.5q99 -20 153.5 -45t77.5 -60.5t23 -92.5q0 -96 -68 -146.5t-197 -50.5q-92 0 -151.5 27.5zM368 923h74l-99 -145h-55z" />
    <glyph glyph-name="Scaron" unicode="&#x160;" horiz-adv-x="618" 
d="M154.5 16.5q-59.5 27.5 -109.5 93.5l49 43q43 -58 89.5 -82t118.5 -24q94 0 145.5 36t51.5 101q0 41 -19 65t-67 41.5t-142 36.5q-103 20 -152.5 66t-49.5 123q0 91 65.5 143t180.5 52q82 0 142 -28.5t93 -83.5l-49 -40q-31 46 -78.5 70t-109.5 24q-79 0 -125.5 -36
t-46.5 -97q0 -54 41 -85.5t135 -50.5q99 -20 153.5 -45t77.5 -60.5t23 -92.5q0 -96 -68 -146.5t-197 -50.5q-92 0 -151.5 27.5zM233 861.5q-37 43.5 -67 66.5h65q24 -19 50 -48.5t35 -48.5q8 19 34 48.5t50 48.5h65q-30 -23 -66.5 -66.5t-58.5 -83.5h-49q-21 40 -58 83.5z
" />
    <glyph glyph-name="Scedilla" unicode="&#x15e;" horiz-adv-x="618" 
d="M511.5 46q-59.5 -50 -172.5 -56l-11 -37q82 -4 82 -74q0 -76 -109 -76q-50 0 -88 19l12 41q39 -16 70 -16t45 7.5t14 24.5q0 16 -11.5 25.5t-44.5 9.5q-6 0 -30 -2l19 77q-83 3 -139 31t-103 90l49 43q43 -58 89.5 -82t118.5 -24q94 0 145.5 36t51.5 101q0 41 -19 65
t-67 41.5t-142 36.5q-103 20 -152.5 66t-49.5 123q0 91 65.5 143t180.5 52q82 0 142 -28.5t93 -83.5l-49 -40q-31 46 -78.5 70t-109.5 24q-79 0 -125.5 -36t-46.5 -97q0 -54 41 -85.5t135 -50.5q99 -20 153.5 -45t77.5 -60.5t23 -92.5q0 -90 -59.5 -140z" />
    <glyph glyph-name="Scircumflex" unicode="&#x15c;" horiz-adv-x="618" 
d="M154.5 16.5q-59.5 27.5 -109.5 93.5l49 43q43 -58 89.5 -82t118.5 -24q94 0 145.5 36t51.5 101q0 41 -19 65t-67 41.5t-142 36.5q-103 20 -152.5 66t-49.5 123q0 91 65.5 143t180.5 52q82 0 142 -28.5t93 -83.5l-49 -40q-31 46 -78.5 70t-109.5 24q-79 0 -125.5 -36
t-46.5 -97q0 -54 41 -85.5t135 -50.5q99 -20 153.5 -45t77.5 -60.5t23 -92.5q0 -96 -68 -146.5t-197 -50.5q-92 0 -151.5 27.5zM233 843.5q37 43.5 58 84.5h49q22 -41 58.5 -84.5t66.5 -65.5h-65q-24 19 -50 48.5t-34 47.5q-9 -19 -35 -48t-50 -48h-65q30 22 67 65.5z" />
    <glyph glyph-name="uni0218" unicode="&#x218;" horiz-adv-x="618" 
d="M154.5 16.5q-59.5 27.5 -109.5 93.5l49 43q43 -58 89.5 -82t118.5 -24q94 0 145.5 36t51.5 101q0 41 -19 65t-67 41.5t-142 36.5q-103 20 -152.5 66t-49.5 123q0 91 65.5 143t180.5 52q82 0 142 -28.5t93 -83.5l-49 -40q-31 46 -78.5 70t-109.5 24q-79 0 -125.5 -36
t-46.5 -97q0 -54 41 -85.5t135 -50.5q99 -20 153.5 -45t77.5 -60.5t23 -92.5q0 -96 -68 -146.5t-197 -50.5q-92 0 -151.5 27.5zM353.5 -85.5q13.5 -16.5 13.5 -44.5q0 -41 -20 -74.5t-54 -59.5l-23 22q47 34 53 79q-10 -6 -24 -6q-17 0 -26.5 11.5t-9.5 31.5q0 21 15.5 39
t37.5 18q24 0 37.5 -16.5z" />
    <glyph glyph-name="uni1E60" unicode="&#x1e60;" horiz-adv-x="618" 
d="M154.5 16.5q-59.5 27.5 -109.5 93.5l49 43q43 -58 89.5 -82t118.5 -24q94 0 145.5 36t51.5 101q0 41 -19 65t-67 41.5t-142 36.5q-103 20 -152.5 66t-49.5 123q0 91 65.5 143t180.5 52q82 0 142 -28.5t93 -83.5l-49 -40q-31 46 -78.5 70t-109.5 24q-79 0 -125.5 -36
t-46.5 -97q0 -54 41 -85.5t135 -50.5q99 -20 153.5 -45t77.5 -60.5t23 -92.5q0 -96 -68 -146.5t-197 -50.5q-92 0 -151.5 27.5zM283 791q-14 14 -14 34q0 19 14 33t33 14t33 -14t14 -33q0 -20 -14 -34t-33 -14t-33 14z" />
    <glyph glyph-name="uni1E62" unicode="&#x1e62;" horiz-adv-x="618" 
d="M154.5 16.5q-59.5 27.5 -109.5 93.5l49 43q43 -58 89.5 -82t118.5 -24q94 0 145.5 36t51.5 101q0 41 -19 65t-67 41.5t-142 36.5q-103 20 -152.5 66t-49.5 123q0 91 65.5 143t180.5 52q82 0 142 -28.5t93 -83.5l-49 -40q-31 46 -78.5 70t-109.5 24q-79 0 -125.5 -36
t-46.5 -97q0 -54 41 -85.5t135 -50.5q99 -20 153.5 -45t77.5 -60.5t23 -92.5q0 -96 -68 -146.5t-197 -50.5q-92 0 -151.5 27.5zM282.5 -148.5q-13.5 13.5 -13.5 33.5q0 19 13.5 33t33.5 14q19 0 33 -14t14 -33q0 -20 -14 -33.5t-33 -13.5q-20 0 -33.5 13.5z" />
    <glyph glyph-name="uni1E9E" unicode="&#x1e9e;" horiz-adv-x="642" 
d="M255 9v58q41 -20 105 -20q76 0 115.5 26.5t39.5 76.5v103q0 50 -44.5 76t-130.5 26h-26v62l183 181q-47 26 -96 40.5t-92 14.5q-76 0 -109 -40t-33 -132v-481h-72v481q0 116 52 173t159 57q126 0 257 -79v-51l-174 -172q100 -7 149 -46t49 -110v-108q0 -74 -56.5 -115
t-158.5 -41q-68 0 -117 20z" />
    <glyph glyph-name="uni018F" unicode="&#x18f;" horiz-adv-x="684" 
d="M619 463v-227q0 -116 -72.5 -181.5t-201.5 -65.5q-85 0 -148 30t-97.5 86t-34.5 131q0 71 33.5 109.5t95.5 38.5h353v79q0 96 -51 143t-156 47q-132 0 -214 -87l-45 41q88 104 262 104q276 0 276 -248zM493 97q54 50 54 139v90h-332q-38 0 -58 -24.5t-20 -71.5
q0 -83 56.5 -133t150.5 -50q95 0 149 50z" />
    <glyph glyph-name="T" unicode="T" horiz-adv-x="586" 
d="M257 642h-227v58h526v-58h-227v-642h-72v642z" />
    <glyph glyph-name="Tbar" unicode="&#x166;" horiz-adv-x="586" 
d="M329 642v-265h144v-53h-144v-324h-72v324h-144v53h144v265h-227v58h526v-58h-227z" />
    <glyph glyph-name="Tcaron" unicode="&#x164;" horiz-adv-x="586" 
d="M257 642h-227v58h526v-58h-227v-642h-72v642zM210 861.5q-37 43.5 -67 66.5h65q24 -19 50 -48.5t35 -48.5q8 19 34 48.5t50 48.5h65q-30 -23 -66.5 -66.5t-58.5 -83.5h-49q-21 40 -58 83.5z" />
    <glyph glyph-name="uni0162" unicode="&#x162;" horiz-adv-x="586" 
d="M319 0l-14 -47q82 -4 82 -74q0 -76 -109 -76q-50 0 -88 19l12 41q39 -16 70 -16t45 7.5t14 24.5q0 16 -11.5 25.5t-44.5 9.5q-6 0 -30 -2l21 88h-9v642h-227v58h526v-58h-227v-642h-10z" />
    <glyph glyph-name="uni021A" unicode="&#x21a;" horiz-adv-x="586" 
d="M257 642h-227v58h526v-58h-227v-642h-72v642zM330.5 -85.5q13.5 -16.5 13.5 -44.5q0 -41 -20 -74.5t-54 -59.5l-23 22q47 34 53 79q-10 -6 -24 -6q-17 0 -26.5 11.5t-9.5 31.5q0 21 15.5 39t37.5 18q24 0 37.5 -16.5z" />
    <glyph glyph-name="uni1E6C" unicode="&#x1e6c;" horiz-adv-x="586" 
d="M257 642h-227v58h526v-58h-227v-642h-72v642zM259.5 -148.5q-13.5 13.5 -13.5 33.5q0 19 13.5 33t33.5 14q19 0 33 -14t14 -33q0 -20 -14 -33.5t-33 -13.5q-20 0 -33.5 13.5z" />
    <glyph glyph-name="uni1E6E" unicode="&#x1e6e;" horiz-adv-x="586" 
d="M257 642h-227v58h526v-58h-227v-642h-72v642zM143 -81h299v-53h-299v53z" />
    <glyph glyph-name="U" unicode="U" horiz-adv-x="670" 
d="M140.5 42.5q-70.5 53.5 -70.5 147.5v510h72v-510q0 -67 51 -105t142 -38t142 38t51 105v510h72v-510q0 -94 -70.5 -147.5t-194.5 -53.5t-194.5 53.5z" />
    <glyph glyph-name="Uacute" unicode="&#xda;" horiz-adv-x="670" 
d="M140.5 42.5q-70.5 53.5 -70.5 147.5v510h72v-510q0 -67 51 -105t142 -38t142 38t51 105v510h72v-510q0 -94 -70.5 -147.5t-194.5 -53.5t-194.5 53.5zM387 923h74l-99 -145h-55z" />
    <glyph glyph-name="Ubreve" unicode="&#x16c;" horiz-adv-x="670" 
d="M140.5 42.5q-70.5 53.5 -70.5 147.5v510h72v-510q0 -67 51 -105t142 -38t142 38t51 105v510h72v-510q0 -94 -70.5 -147.5t-194.5 -53.5t-194.5 53.5zM228.5 811.5q-39.5 38.5 -39.5 103.5h49q3 -42 28.5 -66.5t68.5 -24.5t68.5 24.5t28.5 66.5h49q0 -65 -39.5 -103.5
t-106.5 -38.5t-106.5 38.5z" />
    <glyph glyph-name="uni01D3" unicode="&#x1d3;" horiz-adv-x="670" 
d="M140.5 42.5q-70.5 53.5 -70.5 147.5v510h72v-510q0 -67 51 -105t142 -38t142 38t51 105v510h72v-510q0 -94 -70.5 -147.5t-194.5 -53.5t-194.5 53.5zM252 861.5q-37 43.5 -67 66.5h65q24 -19 50 -48.5t35 -48.5q8 19 34 48.5t50 48.5h65q-30 -23 -66.5 -66.5t-58.5 -83.5
h-49q-21 40 -58 83.5z" />
    <glyph glyph-name="Ucircumflex" unicode="&#xdb;" horiz-adv-x="670" 
d="M140.5 42.5q-70.5 53.5 -70.5 147.5v510h72v-510q0 -67 51 -105t142 -38t142 38t51 105v510h72v-510q0 -94 -70.5 -147.5t-194.5 -53.5t-194.5 53.5zM252 843.5q37 43.5 58 84.5h49q22 -41 58.5 -84.5t66.5 -65.5h-65q-24 19 -50 48.5t-34 47.5q-9 -19 -35 -48t-50 -48
h-65q30 22 67 65.5z" />
    <glyph glyph-name="Udieresis" unicode="&#xdc;" horiz-adv-x="670" 
d="M140.5 42.5q-70.5 53.5 -70.5 147.5v510h72v-510q0 -67 51 -105t142 -38t142 38t51 105v510h72v-510q0 -94 -70.5 -147.5t-194.5 -53.5t-194.5 53.5zM224.5 789.5q-12.5 12.5 -12.5 29.5t12.5 29.5t29.5 12.5t29 -12.5t12 -29.5t-12 -29.5t-29 -12.5t-29.5 12.5z
M387 789.5q-12 12.5 -12 29.5t12 29.5t30 12.5q17 0 29.5 -12.5t12.5 -29.5t-12.5 -29.5t-29.5 -12.5q-18 0 -30 12.5z" />
    <glyph glyph-name="uni01D7" unicode="&#x1d7;" horiz-adv-x="670" 
d="M140.5 42.5q-70.5 53.5 -70.5 147.5v510h72v-510q0 -67 51 -105t142 -38t142 38t51 105v510h72v-510q0 -94 -70.5 -147.5t-194.5 -53.5t-194.5 53.5zM370 1008h74l-82 -111h-55zM224.5 789.5q-12.5 12.5 -12.5 29.5t12.5 29.5t29.5 12.5t29 -12.5t12 -29.5t-12 -29.5
t-29 -12.5t-29.5 12.5zM387 789.5q-12 12.5 -12 29.5t12 29.5t30 12.5q17 0 29.5 -12.5t12.5 -29.5t-12.5 -29.5t-29.5 -12.5q-18 0 -30 12.5z" />
    <glyph glyph-name="uni01D9" unicode="&#x1d9;" horiz-adv-x="670" 
d="M140.5 42.5q-70.5 53.5 -70.5 147.5v510h72v-510q0 -67 51 -105t142 -38t142 38t51 105v510h72v-510q0 -94 -70.5 -147.5t-194.5 -53.5t-194.5 53.5zM258.5 968q-34.5 34 -62.5 53h60q22 -14 46 -37.5t33 -38.5q8 15 32 38.5t46 37.5h60q-28 -18 -62 -52t-54 -66h-45
q-19 31 -53.5 65zM224.5 789.5q-12.5 12.5 -12.5 29.5t12.5 29.5t29.5 12.5t29 -12.5t12 -29.5t-12 -29.5t-29 -12.5t-29.5 12.5zM387 789.5q-12 12.5 -12 29.5t12 29.5t30 12.5q17 0 29.5 -12.5t12.5 -29.5t-12.5 -29.5t-29.5 -12.5q-18 0 -30 12.5z" />
    <glyph glyph-name="uni01DB" unicode="&#x1db;" horiz-adv-x="670" 
d="M140.5 42.5q-70.5 53.5 -70.5 147.5v510h72v-510q0 -67 51 -105t142 -38t142 38t51 105v510h72v-510q0 -94 -70.5 -147.5t-194.5 -53.5t-194.5 53.5zM225 1009h74l63 -111h-55zM224.5 789.5q-12.5 12.5 -12.5 29.5t12.5 29.5t29.5 12.5t29 -12.5t12 -29.5t-12 -29.5
t-29 -12.5t-29.5 12.5zM387 789.5q-12 12.5 -12 29.5t12 29.5t30 12.5q17 0 29.5 -12.5t12.5 -29.5t-12.5 -29.5t-29.5 -12.5q-18 0 -30 12.5z" />
    <glyph glyph-name="uni01D5" unicode="&#x1d5;" horiz-adv-x="670" 
d="M140.5 42.5q-70.5 53.5 -70.5 147.5v510h72v-510q0 -67 51 -105t142 -38t142 38t51 105v510h72v-510q0 -94 -70.5 -147.5t-194.5 -53.5t-194.5 53.5zM185 971h299v-52h-299v52zM224.5 789.5q-12.5 12.5 -12.5 29.5t12.5 29.5t29.5 12.5t29 -12.5t12 -29.5t-12 -29.5
t-29 -12.5t-29.5 12.5zM387 789.5q-12 12.5 -12 29.5t12 29.5t30 12.5q17 0 29.5 -12.5t12.5 -29.5t-12.5 -29.5t-29.5 -12.5q-18 0 -30 12.5z" />
    <glyph glyph-name="uni1EE4" unicode="&#x1ee4;" horiz-adv-x="670" 
d="M140.5 42.5q-70.5 53.5 -70.5 147.5v510h72v-510q0 -67 51 -105t142 -38t142 38t51 105v510h72v-510q0 -94 -70.5 -147.5t-194.5 -53.5t-194.5 53.5zM301.5 -148.5q-13.5 13.5 -13.5 33.5q0 19 13.5 33t33.5 14q19 0 33 -14t14 -33q0 -20 -14 -33.5t-33 -13.5
q-20 0 -33.5 13.5z" />
    <glyph glyph-name="Ugrave" unicode="&#xd9;" horiz-adv-x="670" 
d="M140.5 42.5q-70.5 53.5 -70.5 147.5v510h72v-510q0 -67 51 -105t142 -38t142 38t51 105v510h72v-510q0 -94 -70.5 -147.5t-194.5 -53.5t-194.5 53.5zM206 923h74l81 -145h-56z" />
    <glyph glyph-name="uni1EE6" unicode="&#x1ee6;" horiz-adv-x="670" 
d="M140.5 42.5q-70.5 53.5 -70.5 147.5v510h72v-510q0 -67 51 -105t142 -38t142 38t51 105v510h72v-510q0 -94 -70.5 -147.5t-194.5 -53.5t-194.5 53.5zM415.5 841q-20.5 -18 -57.5 -25v-38h-53v65q41 5 58 15.5t17 29.5q0 21 -12 30t-35 9t-50 -9l-12 40q31 14 68 14
q44 0 70.5 -20t26.5 -59q0 -34 -20.5 -52z" />
    <glyph glyph-name="Uhorn" unicode="&#x1af;" horiz-adv-x="716" 
d="M706 599.5q-33 -40.5 -106 -44.5v-365q0 -94 -70.5 -147.5t-194.5 -53.5t-194.5 53.5t-70.5 147.5v510h72v-510q0 -67 51 -105t142 -38t142 38t51 105v510h72v-105q42 4 59.5 36.5t17.5 98.5h63q-1 -90 -34 -130.5z" />
    <glyph glyph-name="uni1EE8" unicode="&#x1ee8;" horiz-adv-x="716" 
d="M706 599.5q-33 -40.5 -106 -44.5v-365q0 -94 -70.5 -147.5t-194.5 -53.5t-194.5 53.5t-70.5 147.5v510h72v-510q0 -67 51 -105t142 -38t142 38t51 105v510h72v-105q42 4 59.5 36.5t17.5 98.5h63q-1 -90 -34 -130.5zM387 923h74l-99 -145h-55z" />
    <glyph glyph-name="uni1EF0" unicode="&#x1ef0;" horiz-adv-x="716" 
d="M706 599.5q-33 -40.5 -106 -44.5v-365q0 -94 -70.5 -147.5t-194.5 -53.5t-194.5 53.5t-70.5 147.5v510h72v-510q0 -67 51 -105t142 -38t142 38t51 105v510h72v-105q42 4 59.5 36.5t17.5 98.5h63q-1 -90 -34 -130.5zM301.5 -148.5q-13.5 13.5 -13.5 33.5q0 19 13.5 33
t33.5 14q19 0 33 -14t14 -33q0 -20 -14 -33.5t-33 -13.5q-20 0 -33.5 13.5z" />
    <glyph glyph-name="uni1EEA" unicode="&#x1eea;" horiz-adv-x="716" 
d="M706 599.5q-33 -40.5 -106 -44.5v-365q0 -94 -70.5 -147.5t-194.5 -53.5t-194.5 53.5t-70.5 147.5v510h72v-510q0 -67 51 -105t142 -38t142 38t51 105v510h72v-105q42 4 59.5 36.5t17.5 98.5h63q-1 -90 -34 -130.5zM206 923h74l81 -145h-56z" />
    <glyph glyph-name="uni1EEC" unicode="&#x1eec;" horiz-adv-x="716" 
d="M706 599.5q-33 -40.5 -106 -44.5v-365q0 -94 -70.5 -147.5t-194.5 -53.5t-194.5 53.5t-70.5 147.5v510h72v-510q0 -67 51 -105t142 -38t142 38t51 105v510h72v-105q42 4 59.5 36.5t17.5 98.5h63q-1 -90 -34 -130.5zM415.5 841q-20.5 -18 -57.5 -25v-38h-53v65
q41 5 58 15.5t17 29.5q0 21 -12 30t-35 9t-50 -9l-12 40q31 14 68 14q44 0 70.5 -20t26.5 -59q0 -34 -20.5 -52z" />
    <glyph glyph-name="uni1EEE" unicode="&#x1eee;" horiz-adv-x="716" 
d="M706 599.5q-33 -40.5 -106 -44.5v-365q0 -94 -70.5 -147.5t-194.5 -53.5t-194.5 53.5t-70.5 147.5v510h72v-510q0 -67 51 -105t142 -38t142 38t51 105v510h72v-105q42 4 59.5 36.5t17.5 98.5h63q-1 -90 -34 -130.5zM206 859.5q23 29.5 67 29.5q21 0 37.5 -6.5t38.5 -19.5
q18 -10 29 -14.5t23 -4.5q19 0 28 11.5t14 37.5h46q-3 -43 -25.5 -72.5t-62.5 -29.5q-21 0 -38.5 7t-37.5 19q-18 10 -29 14.5t-23 4.5q-21 0 -30.5 -12t-15.5 -39h-46q2 45 25 74.5z" />
    <glyph glyph-name="Uhungarumlaut" unicode="&#x170;" horiz-adv-x="670" 
d="M140.5 42.5q-70.5 53.5 -70.5 147.5v510h72v-510q0 -67 51 -105t142 -38t142 38t51 105v510h72v-510q0 -94 -70.5 -147.5t-194.5 -53.5t-194.5 53.5zM294 923h67l-81 -145h-53zM457 923h67l-82 -145h-52z" />
    <glyph glyph-name="Umacron" unicode="&#x16a;" horiz-adv-x="670" 
d="M140.5 42.5q-70.5 53.5 -70.5 147.5v510h72v-510q0 -67 51 -105t142 -38t142 38t51 105v510h72v-510q0 -94 -70.5 -147.5t-194.5 -53.5t-194.5 53.5zM185 851h299v-52h-299v52z" />
    <glyph glyph-name="Uogonek" unicode="&#x172;" horiz-adv-x="670" 
d="M600 700v-510q0 -89 -64 -142t-177 -58q-18 -27 -27.5 -50t-9.5 -46q0 -24 14 -35.5t37 -11.5q21 0 54 14l12 -41q-33 -20 -72 -20q-56 0 -80 26t-24 59q0 54 43 105q-111 6 -173.5 59t-62.5 141v510h72v-510q0 -67 51 -105t142 -38t142 38t51 105v510h72z" />
    <glyph glyph-name="Uring" unicode="&#x16e;" horiz-adv-x="670" 
d="M140.5 42.5q-70.5 53.5 -70.5 147.5v510h72v-510q0 -67 51 -105t142 -38t142 38t51 105v510h72v-510q0 -94 -70.5 -147.5t-194.5 -53.5t-194.5 53.5zM265 791q-26 25 -26 66t26 66t70 25t70 -25t26 -66t-26 -66t-70 -25t-70 25zM374 817.5q14 14.5 14 39.5t-14 39.5
t-39 14.5t-39 -14.5t-14 -39.5t14 -39.5t39 -14.5t39 14.5z" />
    <glyph glyph-name="Utilde" unicode="&#x168;" horiz-adv-x="670" 
d="M140.5 42.5q-70.5 53.5 -70.5 147.5v510h72v-510q0 -67 51 -105t142 -38t142 38t51 105v510h72v-510q0 -94 -70.5 -147.5t-194.5 -53.5t-194.5 53.5zM206 859.5q23 29.5 67 29.5q21 0 37.5 -6.5t38.5 -19.5q18 -10 29 -14.5t23 -4.5q19 0 28 11.5t14 37.5h46
q-3 -43 -25.5 -72.5t-62.5 -29.5q-21 0 -38.5 7t-37.5 19q-18 10 -29 14.5t-23 4.5q-21 0 -30.5 -12t-15.5 -39h-46q2 45 25 74.5z" />
    <glyph glyph-name="V" unicode="V" horiz-adv-x="640" 
d="M250.5 18q-26.5 29 -46.5 97l-174 585h72l173 -584q9 -32 19.5 -46t25.5 -14q14 0 24 13.5t20 46.5l173 584h73l-174 -585q-20 -67 -47 -96.5t-69 -29.5q-43 0 -69.5 29z" />
    <glyph glyph-name="W" unicode="W" horiz-adv-x="894" 
d="M861 700l-160 -700h-26q-51 0 -78.5 20.5t-42.5 68.5l-107 336l-107 -336q-15 -48 -43 -68.5t-78 -20.5h-26l-160 700h69l144 -636q13 4 22 14t15 29l164 495l164 -495q7 -19 15.5 -29t20.5 -13l144 635h70z" />
    <glyph glyph-name="Wacute" unicode="&#x1e82;" horiz-adv-x="894" 
d="M861 700l-160 -700h-26q-51 0 -78.5 20.5t-42.5 68.5l-107 336l-107 -336q-15 -48 -43 -68.5t-78 -20.5h-26l-160 700h69l144 -636q13 4 22 14t15 29l164 495l164 -495q7 -19 15.5 -29t20.5 -13l144 635h70zM499 923h74l-99 -145h-55z" />
    <glyph glyph-name="Wcircumflex" unicode="&#x174;" horiz-adv-x="894" 
d="M861 700l-160 -700h-26q-51 0 -78.5 20.5t-42.5 68.5l-107 336l-107 -336q-15 -48 -43 -68.5t-78 -20.5h-26l-160 700h69l144 -636q13 4 22 14t15 29l164 495l164 -495q7 -19 15.5 -29t20.5 -13l144 635h70zM364 843.5q37 43.5 58 84.5h49q22 -41 58.5 -84.5t66.5 -65.5
h-65q-24 19 -50 48.5t-34 47.5q-9 -19 -35 -48t-50 -48h-65q30 22 67 65.5z" />
    <glyph glyph-name="Wdieresis" unicode="&#x1e84;" horiz-adv-x="894" 
d="M861 700l-160 -700h-26q-51 0 -78.5 20.5t-42.5 68.5l-107 336l-107 -336q-15 -48 -43 -68.5t-78 -20.5h-26l-160 700h69l144 -636q13 4 22 14t15 29l164 495l164 -495q7 -19 15.5 -29t20.5 -13l144 635h70zM336.5 789.5q-12.5 12.5 -12.5 29.5t12.5 29.5t29.5 12.5
t29 -12.5t12 -29.5t-12 -29.5t-29 -12.5t-29.5 12.5zM499 789.5q-12 12.5 -12 29.5t12 29.5t30 12.5q17 0 29.5 -12.5t12.5 -29.5t-12.5 -29.5t-29.5 -12.5q-18 0 -30 12.5z" />
    <glyph glyph-name="Wgrave" unicode="&#x1e80;" horiz-adv-x="894" 
d="M861 700l-160 -700h-26q-51 0 -78.5 20.5t-42.5 68.5l-107 336l-107 -336q-15 -48 -43 -68.5t-78 -20.5h-26l-160 700h69l144 -636q13 4 22 14t15 29l164 495l164 -495q7 -19 15.5 -29t20.5 -13l144 635h70zM318 923h74l81 -145h-56z" />
    <glyph glyph-name="X" unicode="X" horiz-adv-x="574" 
d="M333 348l235 -348h-83l-199 295l-199 -295h-82l240 356l-231 344h82l196 -291l196 291h81z" />
    <glyph glyph-name="Y" unicode="Y" horiz-adv-x="573" 
d="M250 293l-240 407h80l198 -340l194 340h81l-241 -407v-293h-72v293z" />
    <glyph glyph-name="Yacute" unicode="&#xdd;" horiz-adv-x="573" 
d="M250 293l-240 407h80l198 -340l194 340h81l-241 -407v-293h-72v293zM339 923h74l-99 -145h-55z" />
    <glyph glyph-name="Ycircumflex" unicode="&#x176;" horiz-adv-x="573" 
d="M250 293l-240 407h80l198 -340l194 340h81l-241 -407v-293h-72v293zM204 843.5q37 43.5 58 84.5h49q22 -41 58.5 -84.5t66.5 -65.5h-65q-24 19 -50 48.5t-34 47.5q-9 -19 -35 -48t-50 -48h-65q30 22 67 65.5z" />
    <glyph glyph-name="Ydieresis" unicode="&#x178;" horiz-adv-x="573" 
d="M250 293l-240 407h80l198 -340l194 340h81l-241 -407v-293h-72v293zM176.5 789.5q-12.5 12.5 -12.5 29.5t12.5 29.5t29.5 12.5t29 -12.5t12 -29.5t-12 -29.5t-29 -12.5t-29.5 12.5zM339 789.5q-12 12.5 -12 29.5t12 29.5t30 12.5q17 0 29.5 -12.5t12.5 -29.5t-12.5 -29.5
t-29.5 -12.5q-18 0 -30 12.5z" />
    <glyph glyph-name="uni1E8E" unicode="&#x1e8e;" horiz-adv-x="573" 
d="M250 293l-240 407h80l198 -340l194 340h81l-241 -407v-293h-72v293zM254 791q-14 14 -14 34q0 19 14 33t33 14t33 -14t14 -33q0 -20 -14 -34t-33 -14t-33 14z" />
    <glyph glyph-name="uni1EF4" unicode="&#x1ef4;" horiz-adv-x="573" 
d="M250 293l-240 407h80l198 -340l194 340h81l-241 -407v-293h-72v293zM253.5 -148.5q-13.5 13.5 -13.5 33.5q0 19 13.5 33t33.5 14q19 0 33 -14t14 -33q0 -20 -14 -33.5t-33 -13.5q-20 0 -33.5 13.5z" />
    <glyph glyph-name="Ygrave" unicode="&#x1ef2;" horiz-adv-x="573" 
d="M250 293l-240 407h80l198 -340l194 340h81l-241 -407v-293h-72v293zM158 923h74l81 -145h-56z" />
    <glyph glyph-name="uni1EF6" unicode="&#x1ef6;" horiz-adv-x="573" 
d="M250 293l-240 407h80l198 -340l194 340h81l-241 -407v-293h-72v293zM367.5 841q-20.5 -18 -57.5 -25v-38h-53v65q41 5 58 15.5t17 29.5q0 21 -12 30t-35 9t-50 -9l-12 40q31 14 68 14q44 0 70.5 -20t26.5 -59q0 -34 -20.5 -52z" />
    <glyph glyph-name="uni1EF8" unicode="&#x1ef8;" horiz-adv-x="573" 
d="M250 293l-240 407h80l198 -340l194 340h81l-241 -407v-293h-72v293zM158 859.5q23 29.5 67 29.5q21 0 37.5 -6.5t38.5 -19.5q18 -10 29 -14.5t23 -4.5q19 0 28 11.5t14 37.5h46q-3 -43 -25.5 -72.5t-62.5 -29.5q-21 0 -38.5 7t-37.5 19q-18 10 -29 14.5t-23 4.5
q-21 0 -30.5 -12t-15.5 -39h-46q2 45 25 74.5z" />
    <glyph glyph-name="Z" unicode="Z" horiz-adv-x="588" 
d="M555 58v-58h-423q-49 0 -73 20.5t-24 63.5v34l424 524h-409v58h487v-63l-436 -540v-6q0 -18 9.5 -25.5t32.5 -7.5h412z" />
    <glyph glyph-name="Zacute" unicode="&#x179;" horiz-adv-x="588" 
d="M555 58v-58h-423q-49 0 -73 20.5t-24 63.5v34l424 524h-409v58h487v-63l-436 -540v-6q0 -18 9.5 -25.5t32.5 -7.5h412zM346 923h74l-99 -145h-55z" />
    <glyph glyph-name="Zcaron" unicode="&#x17d;" horiz-adv-x="588" 
d="M555 58v-58h-423q-49 0 -73 20.5t-24 63.5v34l424 524h-409v58h487v-63l-436 -540v-6q0 -18 9.5 -25.5t32.5 -7.5h412zM211 861.5q-37 43.5 -67 66.5h65q24 -19 50 -48.5t35 -48.5q8 19 34 48.5t50 48.5h65q-30 -23 -66.5 -66.5t-58.5 -83.5h-49q-21 40 -58 83.5z" />
    <glyph glyph-name="Zdotaccent" unicode="&#x17b;" horiz-adv-x="588" 
d="M555 58v-58h-423q-49 0 -73 20.5t-24 63.5v34l424 524h-409v58h487v-63l-436 -540v-6q0 -18 9.5 -25.5t32.5 -7.5h412zM261 791q-14 14 -14 34q0 19 14 33t33 14t33 -14t14 -33q0 -20 -14 -34t-33 -14t-33 14z" />
    <glyph glyph-name="uni1E92" unicode="&#x1e92;" horiz-adv-x="588" 
d="M555 58v-58h-423q-49 0 -73 20.5t-24 63.5v34l424 524h-409v58h487v-63l-436 -540v-6q0 -18 9.5 -25.5t32.5 -7.5h412zM262.5 -148.5q-13.5 13.5 -13.5 33.5q0 19 13.5 33t33.5 14q19 0 33 -14t14 -33q0 -20 -14 -33.5t-33 -13.5q-20 0 -33.5 13.5z" />
    <glyph glyph-name="a" unicode="a" horiz-adv-x="528" 
d="M456.5 55.5q6.5 -11.5 24.5 -26.5l-45 -40q-25 14 -37 32t-14 47q-26 -38 -71 -58.5t-101 -20.5q-76 0 -117 35.5t-41 102.5q0 62 43 97t130 45l78 9q33 4 49.5 10t22.5 17.5t5 32.5q-9 93 -130 93q-45 0 -77 -14.5t-55 -45.5l-46 34q47 76 178 76q96 0 146.5 -41
t50.5 -118v-237q0 -18 6.5 -29.5zM341 77q43 36 43 95v81q-12 -9 -29 -13.5t-47 -7.5l-74 -8q-57 -7 -86.5 -31.5t-29.5 -64.5q0 -87 110 -87q70 0 113 36z" />
    <glyph glyph-name="aacute" unicode="&#xe1;" horiz-adv-x="528" 
d="M456.5 55.5q6.5 -11.5 24.5 -26.5l-45 -40q-25 14 -37 32t-14 47q-26 -38 -71 -58.5t-101 -20.5q-76 0 -117 35.5t-41 102.5q0 62 43 97t130 45l78 9q33 4 49.5 10t22.5 17.5t5 32.5q-9 93 -130 93q-45 0 -77 -14.5t-55 -45.5l-46 34q47 76 178 76q96 0 146.5 -41
t50.5 -118v-237q0 -18 6.5 -29.5zM341 77q43 36 43 95v81q-12 -9 -29 -13.5t-47 -7.5l-74 -8q-57 -7 -86.5 -31.5t-29.5 -64.5q0 -87 110 -87q70 0 113 36zM323 693h74l-99 -145h-55z" />
    <glyph glyph-name="abreve" unicode="&#x103;" horiz-adv-x="528" 
d="M456.5 55.5q6.5 -11.5 24.5 -26.5l-45 -40q-25 14 -37 32t-14 47q-26 -38 -71 -58.5t-101 -20.5q-76 0 -117 35.5t-41 102.5q0 62 43 97t130 45l78 9q33 4 49.5 10t22.5 17.5t5 32.5q-9 93 -130 93q-45 0 -77 -14.5t-55 -45.5l-46 34q47 76 178 76q96 0 146.5 -41
t50.5 -118v-237q0 -18 6.5 -29.5zM341 77q43 36 43 95v81q-12 -9 -29 -13.5t-47 -7.5l-74 -8q-57 -7 -86.5 -31.5t-29.5 -64.5q0 -87 110 -87q70 0 113 36zM164.5 581.5q-39.5 38.5 -39.5 103.5h49q3 -42 28.5 -66.5t68.5 -24.5t68.5 24.5t28.5 66.5h49q0 -65 -39.5 -103.5
t-106.5 -38.5t-106.5 38.5z" />
    <glyph glyph-name="uni1EAF" unicode="&#x1eaf;" horiz-adv-x="528" 
d="M456.5 55.5q6.5 -11.5 24.5 -26.5l-45 -40q-25 14 -37 32t-14 47q-26 -38 -71 -58.5t-101 -20.5q-76 0 -117 35.5t-41 102.5q0 62 43 97t130 45l78 9q33 4 49.5 10t22.5 17.5t5 32.5q-9 93 -130 93q-45 0 -77 -14.5t-55 -45.5l-46 34q47 76 178 76q96 0 146.5 -41
t50.5 -118v-237q0 -18 6.5 -29.5zM341 77q43 36 43 95v81q-12 -9 -29 -13.5t-47 -7.5l-74 -8q-57 -7 -86.5 -31.5t-29.5 -64.5q0 -87 110 -87q70 0 113 36zM306 840h74l-82 -111h-55zM164.5 581.5q-39.5 38.5 -39.5 103.5h49q3 -42 28.5 -66.5t68.5 -24.5t68.5 24.5
t28.5 66.5h49q0 -65 -39.5 -103.5t-106.5 -38.5t-106.5 38.5z" />
    <glyph glyph-name="uni1EB7" unicode="&#x1eb7;" horiz-adv-x="528" 
d="M456.5 55.5q6.5 -11.5 24.5 -26.5l-45 -40q-25 14 -37 32t-14 47q-26 -38 -71 -58.5t-101 -20.5q-76 0 -117 35.5t-41 102.5q0 62 43 97t130 45l78 9q33 4 49.5 10t22.5 17.5t5 32.5q-9 93 -130 93q-45 0 -77 -14.5t-55 -45.5l-46 34q47 76 178 76q96 0 146.5 -41
t50.5 -118v-237q0 -18 6.5 -29.5zM341 77q43 36 43 95v81q-12 -9 -29 -13.5t-47 -7.5l-74 -8q-57 -7 -86.5 -31.5t-29.5 -64.5q0 -87 110 -87q70 0 113 36zM237.5 -148.5q-13.5 13.5 -13.5 33.5q0 19 13.5 33t33.5 14q19 0 33 -14t14 -33q0 -20 -14 -33.5t-33 -13.5
q-20 0 -33.5 13.5zM164.5 581.5q-39.5 38.5 -39.5 103.5h49q3 -42 28.5 -66.5t68.5 -24.5t68.5 24.5t28.5 66.5h49q0 -65 -39.5 -103.5t-106.5 -38.5t-106.5 38.5z" />
    <glyph glyph-name="uni1EB1" unicode="&#x1eb1;" horiz-adv-x="528" 
d="M456.5 55.5q6.5 -11.5 24.5 -26.5l-45 -40q-25 14 -37 32t-14 47q-26 -38 -71 -58.5t-101 -20.5q-76 0 -117 35.5t-41 102.5q0 62 43 97t130 45l78 9q33 4 49.5 10t22.5 17.5t5 32.5q-9 93 -130 93q-45 0 -77 -14.5t-55 -45.5l-46 34q47 76 178 76q96 0 146.5 -41
t50.5 -118v-237q0 -18 6.5 -29.5zM341 77q43 36 43 95v81q-12 -9 -29 -13.5t-47 -7.5l-74 -8q-57 -7 -86.5 -31.5t-29.5 -64.5q0 -87 110 -87q70 0 113 36zM161 840h74l63 -111h-55zM164.5 581.5q-39.5 38.5 -39.5 103.5h49q3 -42 28.5 -66.5t68.5 -24.5t68.5 24.5
t28.5 66.5h49q0 -65 -39.5 -103.5t-106.5 -38.5t-106.5 38.5z" />
    <glyph glyph-name="uni1EB3" unicode="&#x1eb3;" horiz-adv-x="528" 
d="M456.5 55.5q6.5 -11.5 24.5 -26.5l-45 -40q-25 14 -37 32t-14 47q-26 -38 -71 -58.5t-101 -20.5q-76 0 -117 35.5t-41 102.5q0 62 43 97t130 45l78 9q33 4 49.5 10t22.5 17.5t5 32.5q-9 93 -130 93q-45 0 -77 -14.5t-55 -45.5l-46 34q47 76 178 76q96 0 146.5 -41
t50.5 -118v-237q0 -18 6.5 -29.5zM341 77q43 36 43 95v81q-12 -9 -29 -13.5t-47 -7.5l-74 -8q-57 -7 -86.5 -31.5t-29.5 -64.5q0 -87 110 -87q70 0 113 36zM226 825l-11 39q28 12 65 12q87 0 87 -68q0 -31 -18 -46.5t-51 -22.5v-35h-50v62q39 5 54.5 12.5t15.5 24.5
q0 19 -10.5 25t-33.5 6q-21 0 -48 -9zM417 685q0 -65 -39.5 -103.5t-106.5 -38.5t-106.5 38.5t-39.5 103.5h49q3 -42 28.5 -66.5t68.5 -24.5t68.5 24.5t28.5 66.5h49z" />
    <glyph glyph-name="uni1EB5" unicode="&#x1eb5;" horiz-adv-x="528" 
d="M456.5 55.5q6.5 -11.5 24.5 -26.5l-45 -40q-25 14 -37 32t-14 47q-26 -38 -71 -58.5t-101 -20.5q-76 0 -117 35.5t-41 102.5q0 62 43 97t130 45l78 9q33 4 49.5 10t22.5 17.5t5 32.5q-9 93 -130 93q-45 0 -77 -14.5t-55 -45.5l-46 34q47 76 178 76q96 0 146.5 -41
t50.5 -118v-237q0 -18 6.5 -29.5zM341 77q43 36 43 95v81q-12 -9 -29 -13.5t-47 -7.5l-74 -8q-57 -7 -86.5 -31.5t-29.5 -64.5q0 -87 110 -87q70 0 113 36zM151 796q21 27 62 27q19 0 34.5 -6t34.5 -17q12 -7 25 -12.5t24 -5.5q18 0 26 10.5t13 34.5h42q-2 -40 -23 -67
t-58 -27q-19 0 -35 6t-36 17q-29 18 -47 18q-19 0 -28 -11t-15 -36h-42q2 42 23 69zM164.5 581.5q-39.5 38.5 -39.5 103.5h49q3 -42 28.5 -66.5t68.5 -24.5t68.5 24.5t28.5 66.5h49q0 -65 -39.5 -103.5t-106.5 -38.5t-106.5 38.5z" />
    <glyph glyph-name="uni01CE" unicode="&#x1ce;" horiz-adv-x="528" 
d="M456.5 55.5q6.5 -11.5 24.5 -26.5l-45 -40q-25 14 -37 32t-14 47q-26 -38 -71 -58.5t-101 -20.5q-76 0 -117 35.5t-41 102.5q0 62 43 97t130 45l78 9q33 4 49.5 10t22.5 17.5t5 32.5q-9 93 -130 93q-45 0 -77 -14.5t-55 -45.5l-46 34q47 76 178 76q96 0 146.5 -41
t50.5 -118v-237q0 -18 6.5 -29.5zM341 77q43 36 43 95v81q-12 -9 -29 -13.5t-47 -7.5l-74 -8q-57 -7 -86.5 -31.5t-29.5 -64.5q0 -87 110 -87q70 0 113 36zM188 631.5q-37 43.5 -67 66.5h65q24 -19 50 -48.5t35 -48.5q8 19 34 48.5t50 48.5h65q-30 -23 -66.5 -66.5
t-58.5 -83.5h-49q-21 40 -58 83.5z" />
    <glyph glyph-name="acircumflex" unicode="&#xe2;" horiz-adv-x="528" 
d="M456.5 55.5q6.5 -11.5 24.5 -26.5l-45 -40q-25 14 -37 32t-14 47q-26 -38 -71 -58.5t-101 -20.5q-76 0 -117 35.5t-41 102.5q0 62 43 97t130 45l78 9q33 4 49.5 10t22.5 17.5t5 32.5q-9 93 -130 93q-45 0 -77 -14.5t-55 -45.5l-46 34q47 76 178 76q96 0 146.5 -41
t50.5 -118v-237q0 -18 6.5 -29.5zM341 77q43 36 43 95v81q-12 -9 -29 -13.5t-47 -7.5l-74 -8q-57 -7 -86.5 -31.5t-29.5 -64.5q0 -87 110 -87q70 0 113 36zM188 613.5q37 43.5 58 84.5h49q22 -41 58.5 -84.5t66.5 -65.5h-65q-24 19 -50 48.5t-34 47.5q-9 -19 -35 -48
t-50 -48h-65q30 22 67 65.5z" />
    <glyph glyph-name="uni1EA5" unicode="&#x1ea5;" horiz-adv-x="528" 
d="M456.5 55.5q6.5 -11.5 24.5 -26.5l-45 -40q-25 14 -37 32t-14 47q-26 -38 -71 -58.5t-101 -20.5q-76 0 -117 35.5t-41 102.5q0 62 43 97t130 45l78 9q33 4 49.5 10t22.5 17.5t5 32.5q-9 93 -130 93q-45 0 -77 -14.5t-55 -45.5l-46 34q47 76 178 76q96 0 146.5 -41
t50.5 -118v-237q0 -18 6.5 -29.5zM341 77q43 36 43 95v81q-12 -9 -29 -13.5t-47 -7.5l-74 -8q-57 -7 -86.5 -31.5t-29.5 -64.5q0 -87 110 -87q70 0 113 36zM438 746h70l-78 -111h-55zM188 613.5q37 43.5 58 84.5h49q22 -41 58.5 -84.5t66.5 -65.5h-65q-24 19 -50 48.5
t-34 47.5q-9 -19 -35 -48t-50 -48h-65q30 22 67 65.5z" />
    <glyph glyph-name="uni1EAD" unicode="&#x1ead;" horiz-adv-x="528" 
d="M456.5 55.5q6.5 -11.5 24.5 -26.5l-45 -40q-25 14 -37 32t-14 47q-26 -38 -71 -58.5t-101 -20.5q-76 0 -117 35.5t-41 102.5q0 62 43 97t130 45l78 9q33 4 49.5 10t22.5 17.5t5 32.5q-9 93 -130 93q-45 0 -77 -14.5t-55 -45.5l-46 34q47 76 178 76q96 0 146.5 -41
t50.5 -118v-237q0 -18 6.5 -29.5zM341 77q43 36 43 95v81q-12 -9 -29 -13.5t-47 -7.5l-74 -8q-57 -7 -86.5 -31.5t-29.5 -64.5q0 -87 110 -87q70 0 113 36zM237.5 -148.5q-13.5 13.5 -13.5 33.5q0 19 13.5 33t33.5 14q19 0 33 -14t14 -33q0 -20 -14 -33.5t-33 -13.5
q-20 0 -33.5 13.5zM188 613.5q37 43.5 58 84.5h49q22 -41 58.5 -84.5t66.5 -65.5h-65q-24 19 -50 48.5t-34 47.5q-9 -19 -35 -48t-50 -48h-65q30 22 67 65.5z" />
    <glyph glyph-name="uni1EA7" unicode="&#x1ea7;" horiz-adv-x="528" 
d="M456.5 55.5q6.5 -11.5 24.5 -26.5l-45 -40q-25 14 -37 32t-14 47q-26 -38 -71 -58.5t-101 -20.5q-76 0 -117 35.5t-41 102.5q0 62 43 97t130 45l78 9q33 4 49.5 10t22.5 17.5t5 32.5q-9 93 -130 93q-45 0 -77 -14.5t-55 -45.5l-46 34q47 76 178 76q96 0 146.5 -41
t50.5 -118v-237q0 -18 6.5 -29.5zM341 77q43 36 43 95v81q-12 -9 -29 -13.5t-47 -7.5l-74 -8q-57 -7 -86.5 -31.5t-29.5 -64.5q0 -87 110 -87q70 0 113 36zM355 746h70l63 -111h-55zM188 613.5q37 43.5 58 84.5h49q22 -41 58.5 -84.5t66.5 -65.5h-65q-24 19 -50 48.5
t-34 47.5q-9 -19 -35 -48t-50 -48h-65q30 22 67 65.5z" />
    <glyph glyph-name="uni1EA9" unicode="&#x1ea9;" horiz-adv-x="528" 
d="M456.5 55.5q6.5 -11.5 24.5 -26.5l-45 -40q-25 14 -37 32t-14 47q-26 -38 -71 -58.5t-101 -20.5q-76 0 -117 35.5t-41 102.5q0 62 43 97t130 45l78 9q33 4 49.5 10t22.5 17.5t5 32.5q-9 93 -130 93q-45 0 -77 -14.5t-55 -45.5l-46 34q47 76 178 76q96 0 146.5 -41
t50.5 -118v-237q0 -18 6.5 -29.5zM341 77q43 36 43 95v81q-12 -9 -29 -13.5t-47 -7.5l-74 -8q-57 -7 -86.5 -31.5t-29.5 -64.5q0 -87 110 -87q70 0 113 36zM475 693.5q-18 -15.5 -51 -22.5v-35h-50v62q39 5 54.5 12.5t15.5 24.5q0 19 -10.5 25t-33.5 6q-21 0 -48 -9l-11 39
q29 12 65 12q87 0 87 -68q0 -31 -18 -46.5zM353.5 613.5q36.5 -43.5 66.5 -65.5h-65q-24 19 -50 48.5t-34 47.5q-9 -19 -35 -48t-50 -48h-65q30 22 67 65.5t58 84.5h49q22 -41 58.5 -84.5z" />
    <glyph glyph-name="uni1EAB" unicode="&#x1eab;" horiz-adv-x="528" 
d="M456.5 55.5q6.5 -11.5 24.5 -26.5l-45 -40q-25 14 -37 32t-14 47q-26 -38 -71 -58.5t-101 -20.5q-76 0 -117 35.5t-41 102.5q0 62 43 97t130 45l78 9q33 4 49.5 10t22.5 17.5t5 32.5q-9 93 -130 93q-45 0 -77 -14.5t-55 -45.5l-46 34q47 76 178 76q96 0 146.5 -41
t50.5 -118v-237q0 -18 6.5 -29.5zM341 77q43 36 43 95v81q-12 -9 -29 -13.5t-47 -7.5l-74 -8q-57 -7 -86.5 -31.5t-29.5 -64.5q0 -87 110 -87q70 0 113 36zM151 796q21 27 62 27q19 0 34.5 -6t34.5 -17q12 -7 25 -12.5t24 -5.5q18 0 26 10.5t13 34.5h42q-2 -40 -23 -67
t-58 -27q-19 0 -35 6t-36 17q-29 18 -47 18q-19 0 -28 -11t-15 -36h-42q2 42 23 69zM188 613.5q37 43.5 58 84.5h49q22 -41 58.5 -84.5t66.5 -65.5h-65q-24 19 -50 48.5t-34 47.5q-9 -19 -35 -48t-50 -48h-65q30 22 67 65.5z" />
    <glyph glyph-name="adieresis" unicode="&#xe4;" horiz-adv-x="528" 
d="M456.5 55.5q6.5 -11.5 24.5 -26.5l-45 -40q-25 14 -37 32t-14 47q-26 -38 -71 -58.5t-101 -20.5q-76 0 -117 35.5t-41 102.5q0 62 43 97t130 45l78 9q33 4 49.5 10t22.5 17.5t5 32.5q-9 93 -130 93q-45 0 -77 -14.5t-55 -45.5l-46 34q47 76 178 76q96 0 146.5 -41
t50.5 -118v-237q0 -18 6.5 -29.5zM341 77q43 36 43 95v81q-12 -9 -29 -13.5t-47 -7.5l-74 -8q-57 -7 -86.5 -31.5t-29.5 -64.5q0 -87 110 -87q70 0 113 36zM160.5 559.5q-12.5 12.5 -12.5 29.5t12.5 29.5t29.5 12.5t29 -12.5t12 -29.5t-12 -29.5t-29 -12.5t-29.5 12.5z
M323 559.5q-12 12.5 -12 29.5t12 29.5t30 12.5q17 0 29.5 -12.5t12.5 -29.5t-12.5 -29.5t-29.5 -12.5q-18 0 -30 12.5z" />
    <glyph glyph-name="uni1EA1" unicode="&#x1ea1;" horiz-adv-x="528" 
d="M456.5 55.5q6.5 -11.5 24.5 -26.5l-45 -40q-25 14 -37 32t-14 47q-26 -38 -71 -58.5t-101 -20.5q-76 0 -117 35.5t-41 102.5q0 62 43 97t130 45l78 9q33 4 49.5 10t22.5 17.5t5 32.5q-9 93 -130 93q-45 0 -77 -14.5t-55 -45.5l-46 34q47 76 178 76q96 0 146.5 -41
t50.5 -118v-237q0 -18 6.5 -29.5zM341 77q43 36 43 95v81q-12 -9 -29 -13.5t-47 -7.5l-74 -8q-57 -7 -86.5 -31.5t-29.5 -64.5q0 -87 110 -87q70 0 113 36zM237.5 -148.5q-13.5 13.5 -13.5 33.5q0 19 13.5 33t33.5 14q19 0 33 -14t14 -33q0 -20 -14 -33.5t-33 -13.5
q-20 0 -33.5 13.5z" />
    <glyph glyph-name="agrave" unicode="&#xe0;" horiz-adv-x="528" 
d="M456.5 55.5q6.5 -11.5 24.5 -26.5l-45 -40q-25 14 -37 32t-14 47q-26 -38 -71 -58.5t-101 -20.5q-76 0 -117 35.5t-41 102.5q0 62 43 97t130 45l78 9q33 4 49.5 10t22.5 17.5t5 32.5q-9 93 -130 93q-45 0 -77 -14.5t-55 -45.5l-46 34q47 76 178 76q96 0 146.5 -41
t50.5 -118v-237q0 -18 6.5 -29.5zM341 77q43 36 43 95v81q-12 -9 -29 -13.5t-47 -7.5l-74 -8q-57 -7 -86.5 -31.5t-29.5 -64.5q0 -87 110 -87q70 0 113 36zM142 693h74l81 -145h-56z" />
    <glyph glyph-name="uni1EA3" unicode="&#x1ea3;" horiz-adv-x="528" 
d="M456.5 55.5q6.5 -11.5 24.5 -26.5l-45 -40q-25 14 -37 32t-14 47q-26 -38 -71 -58.5t-101 -20.5q-76 0 -117 35.5t-41 102.5q0 62 43 97t130 45l78 9q33 4 49.5 10t22.5 17.5t5 32.5q-9 93 -130 93q-45 0 -77 -14.5t-55 -45.5l-46 34q47 76 178 76q96 0 146.5 -41
t50.5 -118v-237q0 -18 6.5 -29.5zM341 77q43 36 43 95v81q-12 -9 -29 -13.5t-47 -7.5l-74 -8q-57 -7 -86.5 -31.5t-29.5 -64.5q0 -87 110 -87q70 0 113 36zM351.5 611q-20.5 -18 -57.5 -25v-38h-53v65q41 5 58 15.5t17 29.5q0 21 -12 30t-35 9t-50 -9l-12 40q31 14 68 14
q44 0 70.5 -20t26.5 -59q0 -34 -20.5 -52z" />
    <glyph glyph-name="uni0251" unicode="&#x251;" horiz-adv-x="571" 
d="M491.5 54.5q6.5 -11.5 24.5 -25.5l-44 -40q-25 14 -36.5 30t-11.5 35q0 9 1 14l3 16q-26 -47 -68 -71t-98 -24q-94 0 -150.5 62.5t-56.5 167.5v32q0 68 25.5 120.5t72.5 81t108 28.5q52 0 91.5 -20.5t65.5 -60.5v70h67v-385q0 -19 6.5 -30.5zM365 70q35 27 52 81v168
q-17 54 -52 81t-93 27q-68 0 -109 -48t-41 -128v-32q0 -80 41 -128t109 -48q58 0 93 27z" />
    <glyph glyph-name="amacron" unicode="&#x101;" horiz-adv-x="528" 
d="M456.5 55.5q6.5 -11.5 24.5 -26.5l-45 -40q-25 14 -37 32t-14 47q-26 -38 -71 -58.5t-101 -20.5q-76 0 -117 35.5t-41 102.5q0 62 43 97t130 45l78 9q33 4 49.5 10t22.5 17.5t5 32.5q-9 93 -130 93q-45 0 -77 -14.5t-55 -45.5l-46 34q47 76 178 76q96 0 146.5 -41
t50.5 -118v-237q0 -18 6.5 -29.5zM341 77q43 36 43 95v81q-12 -9 -29 -13.5t-47 -7.5l-74 -8q-57 -7 -86.5 -31.5t-29.5 -64.5q0 -87 110 -87q70 0 113 36zM121 621h299v-52h-299v52z" />
    <glyph glyph-name="aogonek" unicode="&#x105;" horiz-adv-x="528" 
d="M524 -170q-33 -20 -72 -20q-56 0 -80 26t-24 59q0 63 56 119q-18 20 -19 54q-26 -38 -71 -58.5t-101 -20.5q-76 0 -117 35.5t-41 102.5q0 62 43 97t130 45l78 9q33 4 49.5 10t22.5 17.5t5 32.5q-9 93 -130 93q-45 0 -77 -14.5t-55 -45.5l-46 34q47 76 178 76
q96 0 146.5 -41t50.5 -118v-237q0 -18 6.5 -29.5t24.5 -26.5l-43 -38q-15 -25 -23 -45.5t-8 -41.5q0 -24 14 -35.5t37 -11.5q21 0 54 14zM341 77q43 36 43 95v81q-12 -9 -29 -13.5t-47 -7.5l-74 -8q-57 -7 -86.5 -31.5t-29.5 -64.5q0 -87 110 -87q70 0 113 36z" />
    <glyph glyph-name="aring" unicode="&#xe5;" horiz-adv-x="528" 
d="M456.5 55.5q6.5 -11.5 24.5 -26.5l-45 -40q-25 14 -37 32t-14 47q-26 -38 -71 -58.5t-101 -20.5q-76 0 -117 35.5t-41 102.5q0 62 43 97t130 45l78 9q33 4 49.5 10t22.5 17.5t5 32.5q-9 93 -130 93q-45 0 -77 -14.5t-55 -45.5l-46 34q47 76 178 76q96 0 146.5 -41
t50.5 -118v-237q0 -18 6.5 -29.5zM341 77q43 36 43 95v81q-12 -9 -29 -13.5t-47 -7.5l-74 -8q-57 -7 -86.5 -31.5t-29.5 -64.5q0 -87 110 -87q70 0 113 36zM201 561q-26 25 -26 66t26 66t70 25t70 -25t26 -66t-26 -66t-70 -25t-70 25zM310 587.5q14 14.5 14 39.5t-14 39.5
t-39 14.5t-39 -14.5t-14 -39.5t14 -39.5t39 -14.5t39 14.5z" />
    <glyph glyph-name="aringacute" unicode="&#x1fb;" horiz-adv-x="528" 
d="M297 742h-55l80 116h74zM201 561q-26 25 -26 66t26 66t70 25t70 -25t26 -66t-26 -66t-70 -25t-70 25zM232 666.5q-14 -14.5 -14 -39.5t14 -39.5t39 -14.5t39 14.5t14 39.5t-14 39.5t-39 14.5t-39 -14.5zM456.5 55.5q6.5 -11.5 24.5 -26.5l-45 -40q-25 14 -37 32t-14 47
q-26 -38 -71 -58.5t-101 -20.5q-76 0 -117 35.5t-41 102.5q0 62 43 97t130 45l78 9q33 4 49.5 10t22.5 17.5t5 32.5q-9 93 -130 93q-45 0 -77 -14.5t-55 -45.5l-46 34q47 76 178 76q96 0 146.5 -41t50.5 -118v-237q0 -18 6.5 -29.5zM341 77q43 36 43 95v81q-12 -9 -29 -13.5
t-47 -7.5l-74 -8q-57 -7 -86.5 -31.5t-29.5 -64.5q0 -87 110 -87q70 0 113 36z" />
    <glyph glyph-name="atilde" unicode="&#xe3;" horiz-adv-x="528" 
d="M456.5 55.5q6.5 -11.5 24.5 -26.5l-45 -40q-25 14 -37 32t-14 47q-26 -38 -71 -58.5t-101 -20.5q-76 0 -117 35.5t-41 102.5q0 62 43 97t130 45l78 9q33 4 49.5 10t22.5 17.5t5 32.5q-9 93 -130 93q-45 0 -77 -14.5t-55 -45.5l-46 34q47 76 178 76q96 0 146.5 -41
t50.5 -118v-237q0 -18 6.5 -29.5zM341 77q43 36 43 95v81q-12 -9 -29 -13.5t-47 -7.5l-74 -8q-57 -7 -86.5 -31.5t-29.5 -64.5q0 -87 110 -87q70 0 113 36zM142 629.5q23 29.5 67 29.5q21 0 37.5 -6.5t38.5 -19.5q18 -10 29 -14.5t23 -4.5q19 0 28 11.5t14 37.5h46
q-3 -43 -25.5 -72.5t-62.5 -29.5q-21 0 -38.5 7t-37.5 19q-18 10 -29 14.5t-23 4.5q-21 0 -30.5 -12t-15.5 -39h-46q2 45 25 74.5z" />
    <glyph glyph-name="ae" unicode="&#xe6;" horiz-adv-x="820" 
d="M666 56q33 13 61 42l42 -39q-60 -70 -179 -70q-73 0 -116.5 22.5t-63.5 69.5q-23 -43 -73.5 -67.5t-117.5 -24.5q-83 0 -123.5 36t-40.5 102q0 62 43 97t130 45l78 9q33 4 49.5 10t22.5 17.5t5 32.5q-9 93 -130 93q-46 0 -77.5 -14.5t-54.5 -45.5l-46 34q25 37 71.5 56.5
t108.5 19.5t102.5 -17t64.5 -54q48 70 160 70q93 0 143 -44t50 -126q0 -53 -21.5 -74t-75.5 -21h-228v-53q0 -60 34.5 -89.5t105.5 -29.5q43 0 76 13zM450 261h200q34 0 46 11t12 42q0 53 -33.5 83t-93.5 30q-61 0 -96 -31.5t-35 -85.5v-49zM340.5 78q43.5 37 43.5 97v78
q-12 -9 -29 -13.5t-47 -7.5l-74 -8q-56 -6 -84.5 -31.5t-28.5 -66.5q0 -85 106 -85q70 0 113.5 37z" />
    <glyph glyph-name="aeacute" unicode="&#x1fd;" horiz-adv-x="820" 
d="M666 56q33 13 61 42l42 -39q-60 -70 -179 -70q-73 0 -116.5 22.5t-63.5 69.5q-23 -43 -73.5 -67.5t-117.5 -24.5q-83 0 -123.5 36t-40.5 102q0 62 43 97t130 45l78 9q33 4 49.5 10t22.5 17.5t5 32.5q-9 93 -130 93q-46 0 -77.5 -14.5t-54.5 -45.5l-46 34q25 37 71.5 56.5
t108.5 19.5t102.5 -17t64.5 -54q48 70 160 70q93 0 143 -44t50 -126q0 -53 -21.5 -74t-75.5 -21h-228v-53q0 -60 34.5 -89.5t105.5 -29.5q43 0 76 13zM450 261h200q34 0 46 11t12 42q0 53 -33.5 83t-93.5 30q-61 0 -96 -31.5t-35 -85.5v-49zM340.5 78q43.5 37 43.5 97v78
q-12 -9 -29 -13.5t-47 -7.5l-74 -8q-56 -6 -84.5 -31.5t-28.5 -66.5q0 -85 106 -85q70 0 113.5 37zM471 693h74l-99 -145h-55z" />
    <glyph glyph-name="b" unicode="b" horiz-adv-x="571" 
d="M218 8.5q-40 19.5 -65 57.5v-66h-67v628q0 19 -6 30t-25 27l44 39q30 -17 42 -38t12 -60v-223q26 38 65.5 58t90.5 20q62 0 109 -28.5t72.5 -80.5t25.5 -121v-32q0 -69 -25.5 -121t-72 -80.5t-108.5 -28.5q-52 0 -92 19.5zM407 91q41 48 41 128v32q0 80 -41 128t-109 48
q-58 0 -93 -27t-52 -81v-168q17 -54 52 -81t93 -27q68 0 109 48z" />
    <glyph glyph-name="c" unicode="c" horiz-adv-x="479" 
d="M113 34q-53 45 -53 130v142q0 83 54 129t151 46q59 0 102 -19t74 -58l-46 -39q-28 34 -58 48t-72 14q-65 0 -101.5 -32t-36.5 -89v-142q0 -58 35.5 -89.5t101.5 -31.5q45 0 78 15t56 46l46 -39q-29 -39 -73 -57.5t-107 -18.5q-98 0 -151 45z" />
    <glyph glyph-name="cacute" unicode="&#x107;" horiz-adv-x="479" 
d="M113 34q-53 45 -53 130v142q0 83 54 129t151 46q59 0 102 -19t74 -58l-46 -39q-28 34 -58 48t-72 14q-65 0 -101.5 -32t-36.5 -89v-142q0 -58 35.5 -89.5t101.5 -31.5q45 0 78 15t56 46l46 -39q-29 -39 -73 -57.5t-107 -18.5q-98 0 -151 45zM308 693h74l-99 -145h-55z
" />
    <glyph glyph-name="ccaron" unicode="&#x10d;" horiz-adv-x="479" 
d="M113 34q-53 45 -53 130v142q0 83 54 129t151 46q59 0 102 -19t74 -58l-46 -39q-28 34 -58 48t-72 14q-65 0 -101.5 -32t-36.5 -89v-142q0 -58 35.5 -89.5t101.5 -31.5q45 0 78 15t56 46l46 -39q-29 -39 -73 -57.5t-107 -18.5q-98 0 -151 45zM173 631.5q-37 43.5 -67 66.5
h65q24 -19 50 -48.5t35 -48.5q8 19 34 48.5t50 48.5h65q-30 -23 -66.5 -66.5t-58.5 -83.5h-49q-21 40 -58 83.5z" />
    <glyph glyph-name="ccedilla" unicode="&#xe7;" horiz-adv-x="479" 
d="M379.5 11.5q-38.5 -18.5 -92.5 -21.5l-11 -37q82 -4 82 -74q0 -76 -109 -76q-50 0 -88 19l12 41q39 -16 70 -16t45 7.5t14 24.5q0 16 -11.5 25.5t-44.5 9.5q-6 0 -30 -2l19 78q-85 7 -130 51.5t-45 122.5v142q0 83 54 129t151 46q59 0 102 -19t74 -58l-46 -39
q-28 34 -58 48t-72 14q-65 0 -101.5 -32t-36.5 -89v-142q0 -58 35.5 -89.5t101.5 -31.5q45 0 78 15t56 46l46 -39q-26 -35 -64.5 -53.5z" />
    <glyph glyph-name="ccircumflex" unicode="&#x109;" horiz-adv-x="479" 
d="M113 34q-53 45 -53 130v142q0 83 54 129t151 46q59 0 102 -19t74 -58l-46 -39q-28 34 -58 48t-72 14q-65 0 -101.5 -32t-36.5 -89v-142q0 -58 35.5 -89.5t101.5 -31.5q45 0 78 15t56 46l46 -39q-29 -39 -73 -57.5t-107 -18.5q-98 0 -151 45zM173 613.5q37 43.5 58 84.5
h49q22 -41 58.5 -84.5t66.5 -65.5h-65q-24 19 -50 48.5t-34 47.5q-9 -19 -35 -48t-50 -48h-65q30 22 67 65.5z" />
    <glyph glyph-name="cdotaccent" unicode="&#x10b;" horiz-adv-x="479" 
d="M113 34q-53 45 -53 130v142q0 83 54 129t151 46q59 0 102 -19t74 -58l-46 -39q-28 34 -58 48t-72 14q-65 0 -101.5 -32t-36.5 -89v-142q0 -58 35.5 -89.5t101.5 -31.5q45 0 78 15t56 46l46 -39q-29 -39 -73 -57.5t-107 -18.5q-98 0 -151 45zM223 561q-14 14 -14 34
q0 19 14 33t33 14t33 -14t14 -33q0 -20 -14 -34t-33 -14t-33 14z" />
    <glyph glyph-name="d" unicode="d" horiz-adv-x="570" 
d="M490.5 55.5q6.5 -11.5 24.5 -26.5l-44 -40q-25 14 -37 36.5t-14 46.5q-52 -83 -159 -83q-62 0 -108.5 28.5t-72 80.5t-25.5 121v32q0 69 25.5 121t72 80.5t108.5 28.5q51 0 91.5 -20t64.5 -57v224q0 18 -6 29t-25 28l46 39q29 -16 40.5 -38t11.5 -60v-541
q0 -18 6.5 -29.5zM417 319q-17 54 -52 81t-93 27q-68 0 -109 -48t-41 -128v-32q0 -80 41 -128t109 -48q58 0 93 27t52 81v168z" />
    <glyph glyph-name="eth" unicode="&#xf0;" horiz-adv-x="518" 
d="M449.5 363q8.5 -27 8.5 -63v-130q0 -86 -52.5 -133.5t-146.5 -47.5t-146.5 47.5t-52.5 133.5v130q0 85 52 133t143 48q37 0 65 -9l-52 82h-139v40h113l-67 106h66l68 -106h117v-40h-91l84 -130q22 -34 30.5 -61zM391 300q0 61 -34.5 94t-97.5 33t-97.5 -33t-34.5 -94
v-130q0 -61 34.5 -94t97.5 -33t97.5 33t34.5 94v130z" />
    <glyph glyph-name="dcaron" unicode="&#x10f;" horiz-adv-x="630" 
d="M490.5 55.5q6.5 -11.5 24.5 -26.5l-44 -40q-25 14 -37 36.5t-14 46.5q-52 -83 -159 -83q-62 0 -108.5 28.5t-72 80.5t-25.5 121v32q0 69 25.5 121t72 80.5t108.5 28.5q51 0 91.5 -20t64.5 -57v224q0 18 -6 29t-25 28l46 39q29 -16 40.5 -38t11.5 -60v-541
q0 -18 6.5 -29.5zM417 319q-17 54 -52 81t-93 27q-68 0 -109 -48t-41 -128v-32q0 -80 41 -128t109 -48q58 0 93 27t52 81v168zM617 703q13 -17 13 -45q0 -81 -74 -140l-22 23q48 36 52 84q-8 -5 -23 -5q-17 0 -26.5 11.5t-9.5 31.5q0 21 15.5 39t37.5 18q24 0 37 -17z" />
    <glyph glyph-name="dcroat" unicode="&#x111;" horiz-adv-x="570" 
d="M484 563v-478q0 -18 6.5 -29.5t24.5 -26.5l-44 -40q-25 14 -37 36.5t-14 46.5q-52 -83 -159 -83q-62 0 -108.5 28.5t-72 80.5t-25.5 121v32q0 69 25.5 121t72 80.5t108.5 28.5q51 0 91.5 -20t64.5 -57v159h-170v40h170v25q0 18 -6 29t-25 28l46 39q29 -16 40.5 -38
t11.5 -60v-23h76v-40h-76zM417 319q-17 54 -52 81t-93 27q-68 0 -109 -48t-41 -128v-32q0 -80 41 -128t109 -48q58 0 93 27t52 81v168z" />
    <glyph glyph-name="uni1E0D" unicode="&#x1e0d;" horiz-adv-x="570" 
d="M490.5 55.5q6.5 -11.5 24.5 -26.5l-44 -40q-25 14 -37 36.5t-14 46.5q-52 -83 -159 -83q-62 0 -108.5 28.5t-72 80.5t-25.5 121v32q0 69 25.5 121t72 80.5t108.5 28.5q51 0 91.5 -20t64.5 -57v224q0 18 -6 29t-25 28l46 39q29 -16 40.5 -38t11.5 -60v-541
q0 -18 6.5 -29.5zM417 319q-17 54 -52 81t-93 27q-68 0 -109 -48t-41 -128v-32q0 -80 41 -128t109 -48q58 0 93 27t52 81v168zM250.5 -148.5q-13.5 13.5 -13.5 33.5q0 19 13.5 33t33.5 14q19 0 33 -14t14 -33q0 -20 -14 -33.5t-33 -13.5q-20 0 -33.5 13.5z" />
    <glyph glyph-name="uni1E0F" unicode="&#x1e0f;" horiz-adv-x="570" 
d="M490.5 55.5q6.5 -11.5 24.5 -26.5l-44 -40q-25 14 -37 36.5t-14 46.5q-52 -83 -159 -83q-62 0 -108.5 28.5t-72 80.5t-25.5 121v32q0 69 25.5 121t72 80.5t108.5 28.5q51 0 91.5 -20t64.5 -57v224q0 18 -6 29t-25 28l46 39q29 -16 40.5 -38t11.5 -60v-541
q0 -18 6.5 -29.5zM417 319q-17 54 -52 81t-93 27q-68 0 -109 -48t-41 -128v-32q0 -80 41 -128t109 -48q58 0 93 27t52 81v168zM134 -81h299v-53h-299v53z" />
    <glyph glyph-name="e" unicode="e" horiz-adv-x="497" 
d="M343 56q33 13 61 42l42 -39q-32 -36 -76 -53t-107 -17q-96 0 -149.5 45.5t-53.5 127.5v152q0 77 52.5 121.5t144.5 44.5q94 0 144.5 -47t50.5 -133q0 -55 -20.5 -75.5t-76.5 -20.5h-228v-42q0 -60 34.5 -89.5t105.5 -29.5q43 0 76 13zM161.5 395.5
q-34.5 -31.5 -34.5 -85.5v-57h200q34 0 46 11.5t12 43.5q0 56 -34 87.5t-95 31.5q-60 0 -94.5 -31.5z" />
    <glyph glyph-name="eacute" unicode="&#xe9;" horiz-adv-x="497" 
d="M343 56q33 13 61 42l42 -39q-32 -36 -76 -53t-107 -17q-96 0 -149.5 45.5t-53.5 127.5v152q0 77 52.5 121.5t144.5 44.5q94 0 144.5 -47t50.5 -133q0 -55 -20.5 -75.5t-76.5 -20.5h-228v-42q0 -60 34.5 -89.5t105.5 -29.5q43 0 76 13zM161.5 395.5
q-34.5 -31.5 -34.5 -85.5v-57h200q34 0 46 11.5t12 43.5q0 56 -34 87.5t-95 31.5q-60 0 -94.5 -31.5zM306 693h74l-99 -145h-55z" />
    <glyph glyph-name="ebreve" unicode="&#x115;" horiz-adv-x="497" 
d="M343 56q33 13 61 42l42 -39q-32 -36 -76 -53t-107 -17q-96 0 -149.5 45.5t-53.5 127.5v152q0 77 52.5 121.5t144.5 44.5q94 0 144.5 -47t50.5 -133q0 -55 -20.5 -75.5t-76.5 -20.5h-228v-42q0 -60 34.5 -89.5t105.5 -29.5q43 0 76 13zM161.5 395.5
q-34.5 -31.5 -34.5 -85.5v-57h200q34 0 46 11.5t12 43.5q0 56 -34 87.5t-95 31.5q-60 0 -94.5 -31.5zM147.5 581.5q-39.5 38.5 -39.5 103.5h49q3 -42 28.5 -66.5t68.5 -24.5t68.5 24.5t28.5 66.5h49q0 -65 -39.5 -103.5t-106.5 -38.5t-106.5 38.5z" />
    <glyph glyph-name="ecaron" unicode="&#x11b;" horiz-adv-x="497" 
d="M343 56q33 13 61 42l42 -39q-32 -36 -76 -53t-107 -17q-96 0 -149.5 45.5t-53.5 127.5v152q0 77 52.5 121.5t144.5 44.5q94 0 144.5 -47t50.5 -133q0 -55 -20.5 -75.5t-76.5 -20.5h-228v-42q0 -60 34.5 -89.5t105.5 -29.5q43 0 76 13zM161.5 395.5
q-34.5 -31.5 -34.5 -85.5v-57h200q34 0 46 11.5t12 43.5q0 56 -34 87.5t-95 31.5q-60 0 -94.5 -31.5zM171 631.5q-37 43.5 -67 66.5h65q24 -19 50 -48.5t35 -48.5q8 19 34 48.5t50 48.5h65q-30 -23 -66.5 -66.5t-58.5 -83.5h-49q-21 40 -58 83.5z" />
    <glyph glyph-name="ecircumflex" unicode="&#xea;" horiz-adv-x="497" 
d="M343 56q33 13 61 42l42 -39q-32 -36 -76 -53t-107 -17q-96 0 -149.5 45.5t-53.5 127.5v152q0 77 52.5 121.5t144.5 44.5q94 0 144.5 -47t50.5 -133q0 -55 -20.5 -75.5t-76.5 -20.5h-228v-42q0 -60 34.5 -89.5t105.5 -29.5q43 0 76 13zM161.5 395.5
q-34.5 -31.5 -34.5 -85.5v-57h200q34 0 46 11.5t12 43.5q0 56 -34 87.5t-95 31.5q-60 0 -94.5 -31.5zM171 613.5q37 43.5 58 84.5h49q22 -41 58.5 -84.5t66.5 -65.5h-65q-24 19 -50 48.5t-34 47.5q-9 -19 -35 -48t-50 -48h-65q30 22 67 65.5z" />
    <glyph glyph-name="uni1EBF" unicode="&#x1ebf;" horiz-adv-x="497" 
d="M343 56q33 13 61 42l42 -39q-32 -36 -76 -53t-107 -17q-96 0 -149.5 45.5t-53.5 127.5v152q0 77 52.5 121.5t144.5 44.5q94 0 144.5 -47t50.5 -133q0 -55 -20.5 -75.5t-76.5 -20.5h-228v-42q0 -60 34.5 -89.5t105.5 -29.5q43 0 76 13zM161.5 395.5
q-34.5 -31.5 -34.5 -85.5v-57h200q34 0 46 11.5t12 43.5q0 56 -34 87.5t-95 31.5q-60 0 -94.5 -31.5zM421 746h70l-78 -111h-55zM171 613.5q37 43.5 58 84.5h49q22 -41 58.5 -84.5t66.5 -65.5h-65q-24 19 -50 48.5t-34 47.5q-9 -19 -35 -48t-50 -48h-65q30 22 67 65.5z" />
    <glyph glyph-name="uni1EC7" unicode="&#x1ec7;" horiz-adv-x="497" 
d="M343 56q33 13 61 42l42 -39q-32 -36 -76 -53t-107 -17q-96 0 -149.5 45.5t-53.5 127.5v152q0 77 52.5 121.5t144.5 44.5q94 0 144.5 -47t50.5 -133q0 -55 -20.5 -75.5t-76.5 -20.5h-228v-42q0 -60 34.5 -89.5t105.5 -29.5q43 0 76 13zM161.5 395.5
q-34.5 -31.5 -34.5 -85.5v-57h200q34 0 46 11.5t12 43.5q0 56 -34 87.5t-95 31.5q-60 0 -94.5 -31.5zM220.5 -148.5q-13.5 13.5 -13.5 33.5q0 19 13.5 33t33.5 14q19 0 33 -14t14 -33q0 -20 -14 -33.5t-33 -13.5q-20 0 -33.5 13.5zM171 613.5q37 43.5 58 84.5h49
q22 -41 58.5 -84.5t66.5 -65.5h-65q-24 19 -50 48.5t-34 47.5q-9 -19 -35 -48t-50 -48h-65q30 22 67 65.5z" />
    <glyph glyph-name="uni1EC1" unicode="&#x1ec1;" horiz-adv-x="497" 
d="M343 56q33 13 61 42l42 -39q-32 -36 -76 -53t-107 -17q-96 0 -149.5 45.5t-53.5 127.5v152q0 77 52.5 121.5t144.5 44.5q94 0 144.5 -47t50.5 -133q0 -55 -20.5 -75.5t-76.5 -20.5h-228v-42q0 -60 34.5 -89.5t105.5 -29.5q43 0 76 13zM161.5 395.5
q-34.5 -31.5 -34.5 -85.5v-57h200q34 0 46 11.5t12 43.5q0 56 -34 87.5t-95 31.5q-60 0 -94.5 -31.5zM338 746h70l63 -111h-55zM171 613.5q37 43.5 58 84.5h49q22 -41 58.5 -84.5t66.5 -65.5h-65q-24 19 -50 48.5t-34 47.5q-9 -19 -35 -48t-50 -48h-65q30 22 67 65.5z" />
    <glyph glyph-name="uni1EC3" unicode="&#x1ec3;" horiz-adv-x="497" 
d="M343 56q33 13 61 42l42 -39q-32 -36 -76 -53t-107 -17q-96 0 -149.5 45.5t-53.5 127.5v152q0 77 52.5 121.5t144.5 44.5q94 0 144.5 -47t50.5 -133q0 -55 -20.5 -75.5t-76.5 -20.5h-228v-42q0 -60 34.5 -89.5t105.5 -29.5q43 0 76 13zM161.5 395.5
q-34.5 -31.5 -34.5 -85.5v-57h200q34 0 46 11.5t12 43.5q0 56 -34 87.5t-95 31.5q-60 0 -94.5 -31.5zM458 693.5q-18 -15.5 -51 -22.5v-35h-50v62q39 5 54.5 12.5t15.5 24.5q0 19 -10.5 25t-33.5 6q-21 0 -48 -9l-11 39q29 12 65 12q87 0 87 -68q0 -31 -18 -46.5z
M336.5 613.5q36.5 -43.5 66.5 -65.5h-65q-24 19 -50 48.5t-34 47.5q-9 -19 -35 -48t-50 -48h-65q30 22 67 65.5t58 84.5h49q22 -41 58.5 -84.5z" />
    <glyph glyph-name="uni1EC5" unicode="&#x1ec5;" horiz-adv-x="497" 
d="M343 56q33 13 61 42l42 -39q-32 -36 -76 -53t-107 -17q-96 0 -149.5 45.5t-53.5 127.5v152q0 77 52.5 121.5t144.5 44.5q94 0 144.5 -47t50.5 -133q0 -55 -20.5 -75.5t-76.5 -20.5h-228v-42q0 -60 34.5 -89.5t105.5 -29.5q43 0 76 13zM161.5 395.5
q-34.5 -31.5 -34.5 -85.5v-57h200q34 0 46 11.5t12 43.5q0 56 -34 87.5t-95 31.5q-60 0 -94.5 -31.5zM134 796q21 27 62 27q19 0 34.5 -6t34.5 -17q12 -7 25 -12.5t24 -5.5q18 0 26 10.5t13 34.5h42q-2 -40 -23 -67t-58 -27q-19 0 -35 6t-36 17q-29 18 -47 18q-19 0 -28 -11
t-15 -36h-42q2 42 23 69zM171 613.5q37 43.5 58 84.5h49q22 -41 58.5 -84.5t66.5 -65.5h-65q-24 19 -50 48.5t-34 47.5q-9 -19 -35 -48t-50 -48h-65q30 22 67 65.5z" />
    <glyph glyph-name="edieresis" unicode="&#xeb;" horiz-adv-x="497" 
d="M343 56q33 13 61 42l42 -39q-32 -36 -76 -53t-107 -17q-96 0 -149.5 45.5t-53.5 127.5v152q0 77 52.5 121.5t144.5 44.5q94 0 144.5 -47t50.5 -133q0 -55 -20.5 -75.5t-76.5 -20.5h-228v-42q0 -60 34.5 -89.5t105.5 -29.5q43 0 76 13zM161.5 395.5
q-34.5 -31.5 -34.5 -85.5v-57h200q34 0 46 11.5t12 43.5q0 56 -34 87.5t-95 31.5q-60 0 -94.5 -31.5zM143.5 559.5q-12.5 12.5 -12.5 29.5t12.5 29.5t29.5 12.5t29 -12.5t12 -29.5t-12 -29.5t-29 -12.5t-29.5 12.5zM306 559.5q-12 12.5 -12 29.5t12 29.5t30 12.5
q17 0 29.5 -12.5t12.5 -29.5t-12.5 -29.5t-29.5 -12.5q-18 0 -30 12.5z" />
    <glyph glyph-name="edotaccent" unicode="&#x117;" horiz-adv-x="497" 
d="M343 56q33 13 61 42l42 -39q-32 -36 -76 -53t-107 -17q-96 0 -149.5 45.5t-53.5 127.5v152q0 77 52.5 121.5t144.5 44.5q94 0 144.5 -47t50.5 -133q0 -55 -20.5 -75.5t-76.5 -20.5h-228v-42q0 -60 34.5 -89.5t105.5 -29.5q43 0 76 13zM161.5 395.5
q-34.5 -31.5 -34.5 -85.5v-57h200q34 0 46 11.5t12 43.5q0 56 -34 87.5t-95 31.5q-60 0 -94.5 -31.5zM221 561q-14 14 -14 34q0 19 14 33t33 14t33 -14t14 -33q0 -20 -14 -34t-33 -14t-33 14z" />
    <glyph glyph-name="uni1EB9" unicode="&#x1eb9;" horiz-adv-x="497" 
d="M343 56q33 13 61 42l42 -39q-32 -36 -76 -53t-107 -17q-96 0 -149.5 45.5t-53.5 127.5v152q0 77 52.5 121.5t144.5 44.5q94 0 144.5 -47t50.5 -133q0 -55 -20.5 -75.5t-76.5 -20.5h-228v-42q0 -60 34.5 -89.5t105.5 -29.5q43 0 76 13zM161.5 395.5
q-34.5 -31.5 -34.5 -85.5v-57h200q34 0 46 11.5t12 43.5q0 56 -34 87.5t-95 31.5q-60 0 -94.5 -31.5zM220.5 -148.5q-13.5 13.5 -13.5 33.5q0 19 13.5 33t33.5 14q19 0 33 -14t14 -33q0 -20 -14 -33.5t-33 -13.5q-20 0 -33.5 13.5z" />
    <glyph glyph-name="egrave" unicode="&#xe8;" horiz-adv-x="497" 
d="M343 56q33 13 61 42l42 -39q-32 -36 -76 -53t-107 -17q-96 0 -149.5 45.5t-53.5 127.5v152q0 77 52.5 121.5t144.5 44.5q94 0 144.5 -47t50.5 -133q0 -55 -20.5 -75.5t-76.5 -20.5h-228v-42q0 -60 34.5 -89.5t105.5 -29.5q43 0 76 13zM161.5 395.5
q-34.5 -31.5 -34.5 -85.5v-57h200q34 0 46 11.5t12 43.5q0 56 -34 87.5t-95 31.5q-60 0 -94.5 -31.5zM125 693h74l81 -145h-56z" />
    <glyph glyph-name="uni1EBB" unicode="&#x1ebb;" horiz-adv-x="497" 
d="M343 56q33 13 61 42l42 -39q-32 -36 -76 -53t-107 -17q-96 0 -149.5 45.5t-53.5 127.5v152q0 77 52.5 121.5t144.5 44.5q94 0 144.5 -47t50.5 -133q0 -55 -20.5 -75.5t-76.5 -20.5h-228v-42q0 -60 34.5 -89.5t105.5 -29.5q43 0 76 13zM161.5 395.5
q-34.5 -31.5 -34.5 -85.5v-57h200q34 0 46 11.5t12 43.5q0 56 -34 87.5t-95 31.5q-60 0 -94.5 -31.5zM334.5 611q-20.5 -18 -57.5 -25v-38h-53v65q41 5 58 15.5t17 29.5q0 21 -12 30t-35 9t-50 -9l-12 40q31 14 68 14q44 0 70.5 -20t26.5 -59q0 -34 -20.5 -52z" />
    <glyph glyph-name="emacron" unicode="&#x113;" horiz-adv-x="497" 
d="M343 56q33 13 61 42l42 -39q-32 -36 -76 -53t-107 -17q-96 0 -149.5 45.5t-53.5 127.5v152q0 77 52.5 121.5t144.5 44.5q94 0 144.5 -47t50.5 -133q0 -55 -20.5 -75.5t-76.5 -20.5h-228v-42q0 -60 34.5 -89.5t105.5 -29.5q43 0 76 13zM161.5 395.5
q-34.5 -31.5 -34.5 -85.5v-57h200q34 0 46 11.5t12 43.5q0 56 -34 87.5t-95 31.5q-60 0 -94.5 -31.5zM104 621h299v-52h-299v52z" />
    <glyph glyph-name="eogonek" unicode="&#x119;" horiz-adv-x="497" 
d="M343 56q33 13 61 42l42 -39q-30 -35 -72 -52t-100 -18q-37 -55 -37 -95q0 -24 14 -35.5t37 -11.5q21 0 54 14l12 -41q-33 -20 -72 -20q-56 0 -80 26t-24 59q0 57 44 106q-78 10 -120 54t-42 117v152q0 77 52.5 121.5t144.5 44.5q94 0 144.5 -47t50.5 -133
q0 -55 -20.5 -75.5t-76.5 -20.5h-228v-42q0 -60 34.5 -89.5t105.5 -29.5q43 0 76 13zM161.5 395.5q-34.5 -31.5 -34.5 -85.5v-57h200q34 0 46 11.5t12 43.5q0 56 -34 87.5t-95 31.5q-60 0 -94.5 -31.5z" />
    <glyph glyph-name="uni1EBD" unicode="&#x1ebd;" horiz-adv-x="497" 
d="M343 56q33 13 61 42l42 -39q-32 -36 -76 -53t-107 -17q-96 0 -149.5 45.5t-53.5 127.5v152q0 77 52.5 121.5t144.5 44.5q94 0 144.5 -47t50.5 -133q0 -55 -20.5 -75.5t-76.5 -20.5h-228v-42q0 -60 34.5 -89.5t105.5 -29.5q43 0 76 13zM161.5 395.5
q-34.5 -31.5 -34.5 -85.5v-57h200q34 0 46 11.5t12 43.5q0 56 -34 87.5t-95 31.5q-60 0 -94.5 -31.5zM125 629.5q23 29.5 67 29.5q21 0 37.5 -6.5t38.5 -19.5q18 -10 29 -14.5t23 -4.5q19 0 28 11.5t14 37.5h46q-3 -43 -25.5 -72.5t-62.5 -29.5q-21 0 -38.5 7t-37.5 19
q-18 10 -29 14.5t-23 4.5q-21 0 -30.5 -12t-15.5 -39h-46q2 45 25 74.5z" />
    <glyph glyph-name="uni0259" unicode="&#x259;" horiz-adv-x="497" 
d="M387 438q50 -42 50 -131v-152q0 -77 -52 -121.5t-142 -44.5q-94 0 -146 45.5t-52 133.5q0 37 8 57.5t29 30t60 9.5h228v42q0 60 -34.5 89.5t-105.5 29.5q-45 0 -77.5 -13.5t-59.5 -41.5l-42 39q61 70 179 70q107 0 157 -42zM336 74q34 32 34 85v57h-200
q-33 0 -45.5 -10.5t-12.5 -40.5q0 -60 34 -91.5t97 -31.5q59 0 93 32z" />
    <glyph glyph-name="f" unicode="f" horiz-adv-x="309" 
d="M182 630.5q-28 -30.5 -28 -87.5v-73h135v-54h-135v-416h-67v543q0 83 45.5 127.5t129.5 44.5h27v-54h-27q-52 0 -80 -30.5z" />
    <glyph glyph-name="g" unicode="g" horiz-adv-x="570" 
d="M515 441q-18 -15 -24.5 -26.5t-6.5 -29.5v-420q0 -83 -44 -124t-134 -41h-120v53h120q55 0 83 28.5t28 83.5v113q-24 -38 -63.5 -58t-91.5 -20q-95 0 -151 62t-56 168v21q0 69 25.5 121t72 80.5t108.5 28.5q52 0 93.5 -20.5t68.5 -59.5q0 27 9.5 45.5t38.5 34.5zM365 81
q35 27 52 81v157q-17 54 -52 81t-93 27q-68 0 -109 -48t-41 -128v-21q0 -80 41 -128t109 -48q58 0 93 27z" />
    <glyph glyph-name="gbreve" unicode="&#x11f;" horiz-adv-x="570" 
d="M515 441q-18 -15 -24.5 -26.5t-6.5 -29.5v-420q0 -83 -44 -124t-134 -41h-120v53h120q55 0 83 28.5t28 83.5v113q-24 -38 -63.5 -58t-91.5 -20q-95 0 -151 62t-56 168v21q0 69 25.5 121t72 80.5t108.5 28.5q52 0 93.5 -20.5t68.5 -59.5q0 27 9.5 45.5t38.5 34.5zM365 81
q35 27 52 81v157q-17 54 -52 81t-93 27q-68 0 -109 -48t-41 -128v-21q0 -80 41 -128t109 -48q58 0 93 27zM177.5 581.5q-39.5 38.5 -39.5 103.5h49q3 -42 28.5 -66.5t68.5 -24.5t68.5 24.5t28.5 66.5h49q0 -65 -39.5 -103.5t-106.5 -38.5t-106.5 38.5z" />
    <glyph glyph-name="gcaron" unicode="&#x1e7;" horiz-adv-x="570" 
d="M515 441q-18 -15 -24.5 -26.5t-6.5 -29.5v-420q0 -83 -44 -124t-134 -41h-120v53h120q55 0 83 28.5t28 83.5v113q-24 -38 -63.5 -58t-91.5 -20q-95 0 -151 62t-56 168v21q0 69 25.5 121t72 80.5t108.5 28.5q52 0 93.5 -20.5t68.5 -59.5q0 27 9.5 45.5t38.5 34.5zM365 81
q35 27 52 81v157q-17 54 -52 81t-93 27q-68 0 -109 -48t-41 -128v-21q0 -80 41 -128t109 -48q58 0 93 27zM201 631.5q-37 43.5 -67 66.5h65q24 -19 50 -48.5t35 -48.5q8 19 34 48.5t50 48.5h65q-30 -23 -66.5 -66.5t-58.5 -83.5h-49q-21 40 -58 83.5z" />
    <glyph glyph-name="gcircumflex" unicode="&#x11d;" horiz-adv-x="570" 
d="M515 441q-18 -15 -24.5 -26.5t-6.5 -29.5v-420q0 -83 -44 -124t-134 -41h-120v53h120q55 0 83 28.5t28 83.5v113q-24 -38 -63.5 -58t-91.5 -20q-95 0 -151 62t-56 168v21q0 69 25.5 121t72 80.5t108.5 28.5q52 0 93.5 -20.5t68.5 -59.5q0 27 9.5 45.5t38.5 34.5zM365 81
q35 27 52 81v157q-17 54 -52 81t-93 27q-68 0 -109 -48t-41 -128v-21q0 -80 41 -128t109 -48q58 0 93 27zM201 613.5q37 43.5 58 84.5h49q22 -41 58.5 -84.5t66.5 -65.5h-65q-24 19 -50 48.5t-34 47.5q-9 -19 -35 -48t-50 -48h-65q30 22 67 65.5z" />
    <glyph glyph-name="uni0123" unicode="&#x123;" horiz-adv-x="570" 
d="M246.5 555.5q-13.5 16.5 -13.5 44.5q0 41 20 74.5t54 59.5l23 -22q-47 -34 -53 -79q10 6 24 6q17 0 26.5 -11.5t9.5 -31.5q0 -21 -15.5 -39t-37.5 -18q-24 0 -37.5 16.5zM515 441q-18 -15 -24.5 -26.5t-6.5 -29.5v-420q0 -83 -44 -124t-134 -41h-120v53h120q55 0 83 28.5
t28 83.5v113q-24 -38 -63.5 -58t-91.5 -20q-95 0 -151 62t-56 168v21q0 69 25.5 121t72 80.5t108.5 28.5q52 0 93.5 -20.5t68.5 -59.5q0 27 9.5 45.5t38.5 34.5zM365 81q35 27 52 81v157q-17 54 -52 81t-93 27q-68 0 -109 -48t-41 -128v-21q0 -80 41 -128t109 -48
q58 0 93 27z" />
    <glyph glyph-name="gdotaccent" unicode="&#x121;" horiz-adv-x="570" 
d="M515 441q-18 -15 -24.5 -26.5t-6.5 -29.5v-420q0 -83 -44 -124t-134 -41h-120v53h120q55 0 83 28.5t28 83.5v113q-24 -38 -63.5 -58t-91.5 -20q-95 0 -151 62t-56 168v21q0 69 25.5 121t72 80.5t108.5 28.5q52 0 93.5 -20.5t68.5 -59.5q0 27 9.5 45.5t38.5 34.5zM365 81
q35 27 52 81v157q-17 54 -52 81t-93 27q-68 0 -109 -48t-41 -128v-21q0 -80 41 -128t109 -48q58 0 93 27zM251 561q-14 14 -14 34q0 19 14 33t33 14t33 -14t14 -33q0 -20 -14 -34t-33 -14t-33 14z" />
    <glyph glyph-name="uni1E21" unicode="&#x1e21;" horiz-adv-x="570" 
d="M515 441q-18 -15 -24.5 -26.5t-6.5 -29.5v-420q0 -83 -44 -124t-134 -41h-120v53h120q55 0 83 28.5t28 83.5v113q-24 -38 -63.5 -58t-91.5 -20q-95 0 -151 62t-56 168v21q0 69 25.5 121t72 80.5t108.5 28.5q52 0 93.5 -20.5t68.5 -59.5q0 27 9.5 45.5t38.5 34.5zM365 81
q35 27 52 81v157q-17 54 -52 81t-93 27q-68 0 -109 -48t-41 -128v-21q0 -80 41 -128t109 -48q58 0 93 27zM134 621h299v-52h-299v52z" />
    <glyph glyph-name="h" unicode="h" horiz-adv-x="545" 
d="M430.5 439q39.5 -42 39.5 -118v-321h-67v311q0 55 -26 85.5t-73 30.5q-54 0 -94 -39.5t-57 -109.5v-278h-67v629q0 19 -6.5 30.5t-24.5 25.5l44 40q31 -17 42.5 -38.5t11.5 -59.5v-255q24 52 67.5 80.5t99.5 28.5q71 0 110.5 -42z" />
    <glyph glyph-name="hbar" unicode="&#x127;" horiz-adv-x="545" 
d="M430.5 439q39.5 -42 39.5 -118v-321h-67v311q0 55 -26 85.5t-73 30.5q-54 0 -94 -39.5t-57 -109.5v-278h-67v562h-81v41h81v26q0 19 -6.5 30.5t-24.5 25.5l44 40q31 -17 42.5 -38.5t11.5 -59.5v-24h164v-41h-164v-190q24 52 67.5 80.5t99.5 28.5q71 0 110.5 -42z" />
    <glyph glyph-name="uni1E2B" unicode="&#x1e2b;" horiz-adv-x="545" 
d="M430.5 439q39.5 -42 39.5 -118v-321h-67v311q0 55 -26 85.5t-73 30.5q-54 0 -94 -39.5t-57 -109.5v-278h-67v629q0 19 -6.5 30.5t-24.5 25.5l44 40q31 -17 42.5 -38.5t11.5 -59.5v-255q24 52 67.5 80.5t99.5 28.5q71 0 110.5 -42zM171.5 -181.5q-39.5 40.5 -39.5 108.5
h49q3 -45 28.5 -71.5t68.5 -26.5t68.5 26.5t28.5 71.5h49q0 -68 -39.5 -108.5t-106.5 -40.5t-106.5 40.5z" />
    <glyph glyph-name="hcircumflex" unicode="&#x125;" horiz-adv-x="545" 
d="M430.5 439q39.5 -42 39.5 -118v-321h-67v311q0 55 -26 85.5t-73 30.5q-54 0 -94 -39.5t-57 -109.5v-278h-67v629q0 19 -6.5 30.5t-24.5 25.5l44 40q31 -17 42.5 -38.5t11.5 -59.5v-255q24 52 67.5 80.5t99.5 28.5q71 0 110.5 -42zM215 813.5q37 43.5 58 84.5h49
q22 -41 58.5 -84.5t66.5 -65.5h-65q-24 19 -50 48.5t-34 47.5q-9 -19 -35 -48t-50 -48h-65q30 22 67 65.5z" />
    <glyph glyph-name="uni1E25" unicode="&#x1e25;" horiz-adv-x="545" 
d="M430.5 439q39.5 -42 39.5 -118v-321h-67v311q0 55 -26 85.5t-73 30.5q-54 0 -94 -39.5t-57 -109.5v-278h-67v629q0 19 -6.5 30.5t-24.5 25.5l44 40q31 -17 42.5 -38.5t11.5 -59.5v-255q24 52 67.5 80.5t99.5 28.5q71 0 110.5 -42zM244.5 -148.5q-13.5 13.5 -13.5 33.5
q0 19 13.5 33t33.5 14q19 0 33 -14t14 -33q0 -20 -14 -33.5t-33 -13.5q-20 0 -33.5 13.5z" />
    <glyph glyph-name="i" unicode="i" horiz-adv-x="248" 
d="M91 590q-14 14 -14 33t14 32.5t33 13.5t32.5 -13.5t13.5 -32.5t-13.5 -33t-32.5 -14t-33 14zM101.5 27.5q-11.5 21.5 -11.5 59.5v383h67v-385q0 -18 6.5 -29.5t24.5 -26.5l-44 -40q-31 17 -42.5 38.5z" />
    <glyph glyph-name="dotlessi" unicode="&#x131;" horiz-adv-x="248" 
d="M101 27.5q-12 21.5 -12 59.5v383h67v-385q0 -18 6.5 -29.5t24.5 -26.5l-44 -40q-30 17 -42 38.5z" />
    <glyph glyph-name="iacute" unicode="&#xed;" horiz-adv-x="248" 
d="M101 27.5q-12 21.5 -12 59.5v383h67v-385q0 -18 6.5 -29.5t24.5 -26.5l-44 -40q-30 17 -42 38.5zM176 693h74l-99 -145h-55z" />
    <glyph glyph-name="ibreve" unicode="&#x12d;" horiz-adv-x="248" 
d="M101 27.5q-12 21.5 -12 59.5v383h67v-385q0 -18 6.5 -29.5t24.5 -26.5l-44 -40q-30 17 -42 38.5zM17.5 581.5q-39.5 38.5 -39.5 103.5h49q3 -42 28.5 -66.5t68.5 -24.5t68.5 24.5t28.5 66.5h49q0 -65 -39.5 -103.5t-106.5 -38.5t-106.5 38.5z" />
    <glyph glyph-name="uni01D0" unicode="&#x1d0;" horiz-adv-x="248" 
d="M101 27.5q-12 21.5 -12 59.5v383h67v-385q0 -18 6.5 -29.5t24.5 -26.5l-44 -40q-30 17 -42 38.5zM41 631.5q-37 43.5 -67 66.5h65q24 -19 50 -48.5t35 -48.5q8 19 34 48.5t50 48.5h65q-30 -23 -66.5 -66.5t-58.5 -83.5h-49q-21 40 -58 83.5z" />
    <glyph glyph-name="icircumflex" unicode="&#xee;" horiz-adv-x="248" 
d="M101 27.5q-12 21.5 -12 59.5v383h67v-385q0 -18 6.5 -29.5t24.5 -26.5l-44 -40q-30 17 -42 38.5zM41 613.5q37 43.5 58 84.5h49q22 -41 58.5 -84.5t66.5 -65.5h-65q-24 19 -50 48.5t-34 47.5q-9 -19 -35 -48t-50 -48h-65q30 22 67 65.5z" />
    <glyph glyph-name="idieresis" unicode="&#xef;" horiz-adv-x="248" 
d="M101 27.5q-12 21.5 -12 59.5v383h67v-385q0 -18 6.5 -29.5t24.5 -26.5l-44 -40q-30 17 -42 38.5zM13.5 559.5q-12.5 12.5 -12.5 29.5t12.5 29.5t29.5 12.5t29 -12.5t12 -29.5t-12 -29.5t-29 -12.5t-29.5 12.5zM176 559.5q-12 12.5 -12 29.5t12 29.5t30 12.5
q17 0 29.5 -12.5t12.5 -29.5t-12.5 -29.5t-29.5 -12.5q-18 0 -30 12.5z" />
    <glyph glyph-name="uni1ECB" unicode="&#x1ecb;" horiz-adv-x="248" 
d="M91 590q-14 14 -14 33t14 32.5t33 13.5t32.5 -13.5t13.5 -32.5t-13.5 -33t-32.5 -14t-33 14zM101.5 27.5q-11.5 21.5 -11.5 59.5v383h67v-385q0 -18 6.5 -29.5t24.5 -26.5l-44 -40q-31 17 -42.5 38.5zM96.5 -148.5q-13.5 13.5 -13.5 33.5q0 19 13.5 33t33.5 14
q19 0 33 -14t14 -33q0 -20 -14 -33.5t-33 -13.5q-20 0 -33.5 13.5z" />
    <glyph glyph-name="igrave" unicode="&#xec;" horiz-adv-x="248" 
d="M101 27.5q-12 21.5 -12 59.5v383h67v-385q0 -18 6.5 -29.5t24.5 -26.5l-44 -40q-30 17 -42 38.5zM-5 693h74l81 -145h-56z" />
    <glyph glyph-name="uni1EC9" unicode="&#x1ec9;" horiz-adv-x="248" 
d="M101 27.5q-12 21.5 -12 59.5v383h67v-385q0 -18 6.5 -29.5t24.5 -26.5l-44 -40q-30 17 -42 38.5zM204.5 611q-20.5 -18 -57.5 -25v-38h-53v65q41 5 58 15.5t17 29.5q0 21 -12 30t-35 9t-50 -9l-12 40q31 14 68 14q44 0 70.5 -20t26.5 -59q0 -34 -20.5 -52z" />
    <glyph glyph-name="ij" unicode="&#x133;" horiz-adv-x="470" 
d="M91 590q-14 14 -14 33t14 32.5t33 13.5t32.5 -13.5t13.5 -32.5t-13.5 -33t-32.5 -14t-33 14zM101.5 27.5q-11.5 21.5 -11.5 59.5v383h67v-385q0 -18 6.5 -29.5t24.5 -26.5l-44 -40q-31 17 -42.5 38.5zM324 590q-14 14 -14 33t14 32.5t33 13.5q20 0 33 -13t13 -33
t-13.5 -33.5t-32.5 -13.5t-33 14zM165 -171h47q56 0 83.5 29t27.5 89v523h67v-523q0 -88 -43 -130t-135 -42h-47v54z" />
    <glyph glyph-name="imacron" unicode="&#x12b;" horiz-adv-x="248" 
d="M101 27.5q-12 21.5 -12 59.5v383h67v-385q0 -18 6.5 -29.5t24.5 -26.5l-44 -40q-30 17 -42 38.5zM-26 621h299v-52h-299v52z" />
    <glyph glyph-name="iogonek" unicode="&#x12f;" horiz-adv-x="248" 
d="M91 561q-14 14 -14 34q0 19 14 33t33 14t33 -14t14 -33q0 -20 -14 -34t-33 -14t-33 14zM231 -170q-33 -20 -72 -20q-56 0 -80 26t-24 59q0 63 56 119q-12 13 -17 30t-5 43v383h67v-385q0 -18 6.5 -29.5t24.5 -26.5l-42 -38q-31 -49 -31 -87q0 -24 14 -35.5t37 -11.5
q21 0 54 14z" />
    <glyph glyph-name="itilde" unicode="&#x129;" horiz-adv-x="248" 
d="M101 27.5q-12 21.5 -12 59.5v383h67v-385q0 -18 6.5 -29.5t24.5 -26.5l-44 -40q-30 17 -42 38.5zM-5 629.5q23 29.5 67 29.5q21 0 37.5 -6.5t38.5 -19.5q18 -10 29 -14.5t23 -4.5q19 0 28 11.5t14 37.5h46q-3 -43 -25.5 -72.5t-62.5 -29.5q-21 0 -38.5 7t-37.5 19
q-18 10 -29 14.5t-23 4.5q-21 0 -30.5 -12t-15.5 -39h-46q2 45 25 74.5z" />
    <glyph glyph-name="j" unicode="j" horiz-adv-x="250" 
d="M104 590q-14 14 -14 33t14 32.5t33 13.5q20 0 33 -13t13 -33t-13.5 -33.5t-32.5 -13.5t-33 14zM-55 -171h47q56 0 83.5 29t27.5 89v523h67v-523q0 -88 -43 -130t-135 -42h-47v54z" />
    <glyph glyph-name="uni0237" unicode="&#x237;" horiz-adv-x="250" 
d="M-55 -170h47q56 0 83.5 29.5t27.5 89.5v521h67v-521q0 -88 -43 -130t-135 -42h-47v53z" />
    <glyph glyph-name="jcircumflex" unicode="&#x135;" horiz-adv-x="250" 
d="M-55 -170h47q56 0 83.5 29.5t27.5 89.5v521h67v-521q0 -88 -43 -130t-135 -42h-47v53zM53 613.5q37 43.5 58 84.5h49q22 -41 58.5 -84.5t66.5 -65.5h-65q-24 19 -50 48.5t-34 47.5q-9 -19 -35 -48t-50 -48h-65q30 22 67 65.5z" />
    <glyph glyph-name="k" unicode="k" horiz-adv-x="507" 
d="M382.5 262q28.5 -32 45.5 -96l43 -166h-69l-43 166q-11 43 -34.5 62.5t-70.5 23.5l-101 -101v-151h-67v628q0 19 -6 30t-25 27l46 39q29 -16 40.5 -38t11.5 -60v-393l235 237h84l-168 -168q50 -8 78.5 -40z" />
    <glyph glyph-name="uni0137" unicode="&#x137;" horiz-adv-x="507" 
d="M382.5 262q28.5 -32 45.5 -96l43 -166h-69l-43 166q-11 43 -34.5 62.5t-70.5 23.5l-101 -101v-151h-67v628q0 19 -6 30t-25 27l46 39q29 -16 40.5 -38t11.5 -60v-393l235 237h84l-168 -168q50 -8 78.5 -40zM303.5 -85.5q13.5 -16.5 13.5 -44.5q0 -41 -20 -74.5t-54 -59.5
l-23 22q47 34 53 79q-10 -6 -24 -6q-17 0 -26.5 11.5t-9.5 31.5q0 21 15.5 39t37.5 18q24 0 37.5 -16.5z" />
    <glyph glyph-name="kgreenlandic" unicode="&#x138;" horiz-adv-x="494" 
d="M459 0h-69l-62 166q-14 39 -39 55.5t-76 18.5l-91 -90v-150h-67v470h67v-237l241 237h85l-184 -180q51 -6 81.5 -34.5t52.5 -89.5z" />
    <glyph glyph-name="l" unicode="l" horiz-adv-x="239" 
d="M97.5 27.5q-11.5 21.5 -11.5 59.5v542q0 19 -6.5 30.5t-24.5 25.5l44 40q31 -17 42.5 -38.5t11.5 -59.5v-542q0 -18 6.5 -29.5t24.5 -26.5l-44 -40q-31 17 -42.5 38.5z" />
    <glyph glyph-name="lacute" unicode="&#x13a;" horiz-adv-x="239" 
d="M97.5 27.5q-11.5 21.5 -11.5 59.5v542q0 19 -6.5 30.5t-24.5 25.5l44 40q31 -17 42.5 -38.5t11.5 -59.5v-542q0 -18 6.5 -29.5t24.5 -26.5l-44 -40q-31 17 -42.5 38.5zM166 938h74l-99 -145h-55z" />
    <glyph glyph-name="lcaron" unicode="&#x13e;" horiz-adv-x="288" 
d="M97.5 27.5q-11.5 21.5 -11.5 59.5v542q0 19 -6.5 30.5t-24.5 25.5l44 40q31 -17 42.5 -38.5t11.5 -59.5v-542q0 -18 6.5 -29.5t24.5 -26.5l-44 -40q-31 17 -42.5 38.5zM287 703q13 -17 13 -45q0 -81 -74 -140l-22 23q48 36 52 84q-8 -5 -23 -5q-17 0 -26.5 11.5
t-9.5 31.5q0 21 15.5 39t37.5 18q24 0 37 -17z" />
    <glyph glyph-name="uni013C" unicode="&#x13c;" horiz-adv-x="239" 
d="M97.5 27.5q-11.5 21.5 -11.5 59.5v542q0 19 -6.5 30.5t-24.5 25.5l44 40q31 -17 42.5 -38.5t11.5 -59.5v-542q0 -18 6.5 -29.5t24.5 -26.5l-44 -40q-31 17 -42.5 38.5zM171.5 -85.5q13.5 -16.5 13.5 -44.5q0 -41 -20 -74.5t-54 -59.5l-23 22q47 34 53 79q-10 -6 -24 -6
q-17 0 -26.5 11.5t-9.5 31.5q0 21 15.5 39t37.5 18q24 0 37.5 -16.5z" />
    <glyph glyph-name="ldot" unicode="&#x140;" horiz-adv-x="331" 
d="M97.5 27.5q-11.5 21.5 -11.5 59.5v542q0 19 -6.5 30.5t-24.5 25.5l44 40q31 -17 42.5 -38.5t11.5 -59.5v-542q0 -18 6.5 -29.5t24.5 -26.5l-44 -40q-31 17 -42.5 38.5zM216.5 261q-17.5 17 -17.5 42q0 26 17.5 43t42.5 17q24 0 41.5 -17.5t17.5 -42.5t-17.5 -42
t-41.5 -17q-25 0 -42.5 17z" />
    <glyph glyph-name="uni1E37" unicode="&#x1e37;" horiz-adv-x="239" 
d="M97.5 27.5q-11.5 21.5 -11.5 59.5v542q0 19 -6.5 30.5t-24.5 25.5l44 40q31 -17 42.5 -38.5t11.5 -59.5v-542q0 -18 6.5 -29.5t24.5 -26.5l-44 -40q-31 17 -42.5 38.5zM100.5 -148.5q-13.5 13.5 -13.5 33.5q0 19 13.5 33t33.5 14q19 0 33 -14t14 -33q0 -20 -14 -33.5
t-33 -13.5q-20 0 -33.5 13.5z" />
    <glyph glyph-name="uni1E39" unicode="&#x1e39;" horiz-adv-x="239" 
d="M97.5 27.5q-11.5 21.5 -11.5 59.5v542q0 19 -6.5 30.5t-24.5 25.5l44 40q31 -17 42.5 -38.5t11.5 -59.5v-542q0 -18 6.5 -29.5t24.5 -26.5l-44 -40q-31 17 -42.5 38.5zM100.5 -148.5q-13.5 13.5 -13.5 33.5q0 19 13.5 33t33.5 14q19 0 33 -14t14 -33q0 -20 -14 -33.5
t-33 -13.5q-20 0 -33.5 13.5zM-36 866h299v-52h-299v52z" />
    <glyph glyph-name="uni1E3B" unicode="&#x1e3b;" horiz-adv-x="239" 
d="M97.5 27.5q-11.5 21.5 -11.5 59.5v542q0 19 -6.5 30.5t-24.5 25.5l44 40q31 -17 42.5 -38.5t11.5 -59.5v-542q0 -18 6.5 -29.5t24.5 -26.5l-44 -40q-31 17 -42.5 38.5zM-16 -81h299v-53h-299v53z" />
    <glyph glyph-name="lslash" unicode="&#x142;" horiz-adv-x="237" 
d="M157 380v-295q0 -18 6.5 -29.5t24.5 -26.5l-44 -40q-31 17 -42.5 38.5t-11.5 59.5v246l-86 -59v60l86 59v236q0 19 -6.5 30.5t-24.5 25.5l44 40q31 -17 42.5 -38.5t11.5 -59.5v-187l76 52v-60z" />
    <glyph glyph-name="m" unicode="m" horiz-adv-x="827" 
d="M715 439q37 -42 37 -118v-321h-67v311q0 56 -24 86t-68 30q-50 0 -88.5 -41.5t-52.5 -111.5v-274h-67v311q0 56 -23.5 86t-67.5 30q-50 0 -89 -42.5t-52 -110.5v-274h-67v385q0 18 -6.5 29.5t-24.5 26.5l44 40q28 -15 40.5 -37t12.5 -55v-16q24 52 65.5 80t94.5 28
q56 0 91 -31t44 -90q17 56 62 88.5t102 32.5q67 0 104 -42z" />
    <glyph glyph-name="uni1E43" unicode="&#x1e43;" horiz-adv-x="827" 
d="M715 439q37 -42 37 -118v-321h-67v311q0 56 -24 86t-68 30q-50 0 -88.5 -41.5t-52.5 -111.5v-274h-67v311q0 56 -23.5 86t-67.5 30q-50 0 -89 -42.5t-52 -110.5v-274h-67v385q0 18 -6.5 29.5t-24.5 26.5l44 40q28 -15 40.5 -37t12.5 -55v-16q24 52 65.5 80t94.5 28
q56 0 91 -31t44 -90q17 56 62 88.5t102 32.5q67 0 104 -42zM384.5 -148.5q-13.5 13.5 -13.5 33.5q0 19 13.5 33t33.5 14q19 0 33 -14t14 -33q0 -20 -14 -33.5t-33 -13.5q-20 0 -33.5 13.5z" />
    <glyph glyph-name="n" unicode="n" horiz-adv-x="545" 
d="M430 438.5q40 -42.5 40 -117.5v-321h-67v311q0 55 -26.5 85.5t-73.5 30.5q-54 0 -93.5 -40t-56.5 -109v-278h-67v385q0 18 -6.5 29.5t-24.5 26.5l44 40q31 -17 42.5 -38.5t11.5 -59.5v-9q25 52 67.5 79.5t98.5 27.5q71 0 111 -42.5z" />
    <glyph glyph-name="nacute" unicode="&#x144;" horiz-adv-x="545" 
d="M430 438.5q40 -42.5 40 -117.5v-321h-67v311q0 55 -26.5 85.5t-73.5 30.5q-54 0 -93.5 -40t-56.5 -109v-278h-67v385q0 18 -6.5 29.5t-24.5 26.5l44 40q31 -17 42.5 -38.5t11.5 -59.5v-9q25 52 67.5 79.5t98.5 27.5q71 0 111 -42.5zM336 693h74l-99 -145h-55z" />
    <glyph glyph-name="napostrophe" unicode="&#x149;" horiz-adv-x="583" 
d="M103 651q13 -17 13 -45q0 -81 -74 -140l-22 23q48 36 52 84q-8 -5 -23 -5q-17 0 -26.5 11.5t-9.5 31.5q0 21 15.5 39t37.5 18q24 0 37 -17zM468 438.5q40 -42.5 40 -117.5v-321h-67v311q0 55 -26.5 85.5t-73.5 30.5q-54 0 -93.5 -40t-56.5 -109v-278h-67v385
q0 18 -6.5 29.5t-24.5 26.5l44 40q31 -17 42.5 -38.5t11.5 -59.5v-9q25 52 67.5 79.5t98.5 27.5q71 0 111 -42.5z" />
    <glyph glyph-name="ncaron" unicode="&#x148;" horiz-adv-x="545" 
d="M430 438.5q40 -42.5 40 -117.5v-321h-67v311q0 55 -26.5 85.5t-73.5 30.5q-54 0 -93.5 -40t-56.5 -109v-278h-67v385q0 18 -6.5 29.5t-24.5 26.5l44 40q31 -17 42.5 -38.5t11.5 -59.5v-9q25 52 67.5 79.5t98.5 27.5q71 0 111 -42.5zM201 631.5q-37 43.5 -67 66.5h65
q24 -19 50 -48.5t35 -48.5q8 19 34 48.5t50 48.5h65q-30 -23 -66.5 -66.5t-58.5 -83.5h-49q-21 40 -58 83.5z" />
    <glyph glyph-name="uni0146" unicode="&#x146;" horiz-adv-x="545" 
d="M430 438.5q40 -42.5 40 -117.5v-321h-67v311q0 55 -26.5 85.5t-73.5 30.5q-54 0 -93.5 -40t-56.5 -109v-278h-67v385q0 18 -6.5 29.5t-24.5 26.5l44 40q31 -17 42.5 -38.5t11.5 -59.5v-9q25 52 67.5 79.5t98.5 27.5q71 0 111 -42.5zM327.5 -85.5q13.5 -16.5 13.5 -44.5
q0 -41 -20 -74.5t-54 -59.5l-23 22q47 34 53 79q-10 -6 -24 -6q-17 0 -26.5 11.5t-9.5 31.5q0 21 15.5 39t37.5 18q24 0 37.5 -16.5z" />
    <glyph glyph-name="uni1E45" unicode="&#x1e45;" horiz-adv-x="545" 
d="M430 438.5q40 -42.5 40 -117.5v-321h-67v311q0 55 -26.5 85.5t-73.5 30.5q-54 0 -93.5 -40t-56.5 -109v-278h-67v385q0 18 -6.5 29.5t-24.5 26.5l44 40q31 -17 42.5 -38.5t11.5 -59.5v-9q25 52 67.5 79.5t98.5 27.5q71 0 111 -42.5zM251 561q-14 14 -14 34q0 19 14 33
t33 14t33 -14t14 -33q0 -20 -14 -34t-33 -14t-33 14z" />
    <glyph glyph-name="uni1E47" unicode="&#x1e47;" horiz-adv-x="545" 
d="M430 438.5q40 -42.5 40 -117.5v-321h-67v311q0 55 -26.5 85.5t-73.5 30.5q-54 0 -93.5 -40t-56.5 -109v-278h-67v385q0 18 -6.5 29.5t-24.5 26.5l44 40q31 -17 42.5 -38.5t11.5 -59.5v-9q25 52 67.5 79.5t98.5 27.5q71 0 111 -42.5zM256.5 -148.5q-13.5 13.5 -13.5 33.5
q0 19 13.5 33t33.5 14q19 0 33 -14t14 -33q0 -20 -14 -33.5t-33 -13.5q-20 0 -33.5 13.5z" />
    <glyph glyph-name="eng" unicode="&#x14b;" horiz-adv-x="545" 
d="M263 -172h28q112 0 112 119v364q0 55 -26.5 85.5t-73.5 30.5q-54 0 -93.5 -40t-56.5 -109v-278h-67v385q0 18 -6.5 29.5t-24.5 26.5l44 40q31 -17 42.5 -38.5t11.5 -59.5v-9q25 52 67.5 79.5t98.5 27.5q71 0 111 -42.5t40 -117.5v-374q0 -88 -43.5 -130t-135.5 -42h-28
v53z" />
    <glyph glyph-name="uni1E49" unicode="&#x1e49;" horiz-adv-x="545" 
d="M430 438.5q40 -42.5 40 -117.5v-321h-67v311q0 55 -26.5 85.5t-73.5 30.5q-54 0 -93.5 -40t-56.5 -109v-278h-67v385q0 18 -6.5 29.5t-24.5 26.5l44 40q31 -17 42.5 -38.5t11.5 -59.5v-9q25 52 67.5 79.5t98.5 27.5q71 0 111 -42.5zM140 -81h299v-53h-299v53z" />
    <glyph glyph-name="ntilde" unicode="&#xf1;" horiz-adv-x="545" 
d="M430 438.5q40 -42.5 40 -117.5v-321h-67v311q0 55 -26.5 85.5t-73.5 30.5q-54 0 -93.5 -40t-56.5 -109v-278h-67v385q0 18 -6.5 29.5t-24.5 26.5l44 40q31 -17 42.5 -38.5t11.5 -59.5v-9q25 52 67.5 79.5t98.5 27.5q71 0 111 -42.5zM155 629.5q23 29.5 67 29.5
q21 0 37.5 -6.5t38.5 -19.5q18 -10 29 -14.5t23 -4.5q19 0 28 11.5t14 37.5h46q-3 -43 -25.5 -72.5t-62.5 -29.5q-21 0 -38.5 7t-37.5 19q-18 10 -29 14.5t-23 4.5q-21 0 -30.5 -12t-15.5 -39h-46q2 45 25 74.5z" />
    <glyph glyph-name="o" unicode="o" horiz-adv-x="518" 
d="M112.5 36.5q-52.5 47.5 -52.5 133.5v130q0 86 52.5 133.5t146.5 47.5t146.5 -47.5t52.5 -133.5v-130q0 -86 -52.5 -133.5t-146.5 -47.5t-146.5 47.5zM356.5 76q34.5 33 34.5 94v130q0 61 -34.5 94t-97.5 33t-97.5 -33t-34.5 -94v-130q0 -61 34.5 -94t97.5 -33t97.5 33z
" />
    <glyph glyph-name="oacute" unicode="&#xf3;" horiz-adv-x="518" 
d="M112.5 36.5q-52.5 47.5 -52.5 133.5v130q0 86 52.5 133.5t146.5 47.5t146.5 -47.5t52.5 -133.5v-130q0 -86 -52.5 -133.5t-146.5 -47.5t-146.5 47.5zM356.5 76q34.5 33 34.5 94v130q0 61 -34.5 94t-97.5 33t-97.5 -33t-34.5 -94v-130q0 -61 34.5 -94t97.5 -33t97.5 33z
M311 693h74l-99 -145h-55z" />
    <glyph glyph-name="obreve" unicode="&#x14f;" horiz-adv-x="518" 
d="M112.5 36.5q-52.5 47.5 -52.5 133.5v130q0 86 52.5 133.5t146.5 47.5t146.5 -47.5t52.5 -133.5v-130q0 -86 -52.5 -133.5t-146.5 -47.5t-146.5 47.5zM356.5 76q34.5 33 34.5 94v130q0 61 -34.5 94t-97.5 33t-97.5 -33t-34.5 -94v-130q0 -61 34.5 -94t97.5 -33t97.5 33z
M152.5 581.5q-39.5 38.5 -39.5 103.5h49q3 -42 28.5 -66.5t68.5 -24.5t68.5 24.5t28.5 66.5h49q0 -65 -39.5 -103.5t-106.5 -38.5t-106.5 38.5z" />
    <glyph glyph-name="uni01D2" unicode="&#x1d2;" horiz-adv-x="518" 
d="M112.5 36.5q-52.5 47.5 -52.5 133.5v130q0 86 52.5 133.5t146.5 47.5t146.5 -47.5t52.5 -133.5v-130q0 -86 -52.5 -133.5t-146.5 -47.5t-146.5 47.5zM356.5 76q34.5 33 34.5 94v130q0 61 -34.5 94t-97.5 33t-97.5 -33t-34.5 -94v-130q0 -61 34.5 -94t97.5 -33t97.5 33z
M176 631.5q-37 43.5 -67 66.5h65q24 -19 50 -48.5t35 -48.5q8 19 34 48.5t50 48.5h65q-30 -23 -66.5 -66.5t-58.5 -83.5h-49q-21 40 -58 83.5z" />
    <glyph glyph-name="ocircumflex" unicode="&#xf4;" horiz-adv-x="518" 
d="M112.5 36.5q-52.5 47.5 -52.5 133.5v130q0 86 52.5 133.5t146.5 47.5t146.5 -47.5t52.5 -133.5v-130q0 -86 -52.5 -133.5t-146.5 -47.5t-146.5 47.5zM356.5 76q34.5 33 34.5 94v130q0 61 -34.5 94t-97.5 33t-97.5 -33t-34.5 -94v-130q0 -61 34.5 -94t97.5 -33t97.5 33z
M176 613.5q37 43.5 58 84.5h49q22 -41 58.5 -84.5t66.5 -65.5h-65q-24 19 -50 48.5t-34 47.5q-9 -19 -35 -48t-50 -48h-65q30 22 67 65.5z" />
    <glyph glyph-name="uni1ED1" unicode="&#x1ed1;" horiz-adv-x="518" 
d="M112.5 36.5q-52.5 47.5 -52.5 133.5v130q0 86 52.5 133.5t146.5 47.5t146.5 -47.5t52.5 -133.5v-130q0 -86 -52.5 -133.5t-146.5 -47.5t-146.5 47.5zM356.5 76q34.5 33 34.5 94v130q0 61 -34.5 94t-97.5 33t-97.5 -33t-34.5 -94v-130q0 -61 34.5 -94t97.5 -33t97.5 33z
M426 746h70l-78 -111h-55zM176 613.5q37 43.5 58 84.5h49q22 -41 58.5 -84.5t66.5 -65.5h-65q-24 19 -50 48.5t-34 47.5q-9 -19 -35 -48t-50 -48h-65q30 22 67 65.5z" />
    <glyph glyph-name="uni1ED9" unicode="&#x1ed9;" horiz-adv-x="518" 
d="M112.5 36.5q-52.5 47.5 -52.5 133.5v130q0 86 52.5 133.5t146.5 47.5t146.5 -47.5t52.5 -133.5v-130q0 -86 -52.5 -133.5t-146.5 -47.5t-146.5 47.5zM356.5 76q34.5 33 34.5 94v130q0 61 -34.5 94t-97.5 33t-97.5 -33t-34.5 -94v-130q0 -61 34.5 -94t97.5 -33t97.5 33z
M225.5 -148.5q-13.5 13.5 -13.5 33.5q0 19 13.5 33t33.5 14q19 0 33 -14t14 -33q0 -20 -14 -33.5t-33 -13.5q-20 0 -33.5 13.5zM176 613.5q37 43.5 58 84.5h49q22 -41 58.5 -84.5t66.5 -65.5h-65q-24 19 -50 48.5t-34 47.5q-9 -19 -35 -48t-50 -48h-65q30 22 67 65.5z" />
    <glyph glyph-name="uni1ED3" unicode="&#x1ed3;" horiz-adv-x="518" 
d="M112.5 36.5q-52.5 47.5 -52.5 133.5v130q0 86 52.5 133.5t146.5 47.5t146.5 -47.5t52.5 -133.5v-130q0 -86 -52.5 -133.5t-146.5 -47.5t-146.5 47.5zM356.5 76q34.5 33 34.5 94v130q0 61 -34.5 94t-97.5 33t-97.5 -33t-34.5 -94v-130q0 -61 34.5 -94t97.5 -33t97.5 33z
M343 746h70l63 -111h-55zM176 613.5q37 43.5 58 84.5h49q22 -41 58.5 -84.5t66.5 -65.5h-65q-24 19 -50 48.5t-34 47.5q-9 -19 -35 -48t-50 -48h-65q30 22 67 65.5z" />
    <glyph glyph-name="uni1ED5" unicode="&#x1ed5;" horiz-adv-x="518" 
d="M112.5 36.5q-52.5 47.5 -52.5 133.5v130q0 86 52.5 133.5t146.5 47.5t146.5 -47.5t52.5 -133.5v-130q0 -86 -52.5 -133.5t-146.5 -47.5t-146.5 47.5zM356.5 76q34.5 33 34.5 94v130q0 61 -34.5 94t-97.5 33t-97.5 -33t-34.5 -94v-130q0 -61 34.5 -94t97.5 -33t97.5 33z
M463 693.5q-18 -15.5 -51 -22.5v-35h-50v62q39 5 54.5 12.5t15.5 24.5q0 19 -10.5 25t-33.5 6q-21 0 -48 -9l-11 39q29 12 65 12q87 0 87 -68q0 -31 -18 -46.5zM341.5 613.5q36.5 -43.5 66.5 -65.5h-65q-24 19 -50 48.5t-34 47.5q-9 -19 -35 -48t-50 -48h-65q30 22 67 65.5
t58 84.5h49q22 -41 58.5 -84.5z" />
    <glyph glyph-name="uni1ED7" unicode="&#x1ed7;" horiz-adv-x="518" 
d="M112.5 36.5q-52.5 47.5 -52.5 133.5v130q0 86 52.5 133.5t146.5 47.5t146.5 -47.5t52.5 -133.5v-130q0 -86 -52.5 -133.5t-146.5 -47.5t-146.5 47.5zM356.5 76q34.5 33 34.5 94v130q0 61 -34.5 94t-97.5 33t-97.5 -33t-34.5 -94v-130q0 -61 34.5 -94t97.5 -33t97.5 33z
M139 796q21 27 62 27q19 0 34.5 -6t34.5 -17q12 -7 25 -12.5t24 -5.5q18 0 26 10.5t13 34.5h42q-2 -40 -23 -67t-58 -27q-19 0 -35 6t-36 17q-29 18 -47 18q-19 0 -28 -11t-15 -36h-42q2 42 23 69zM176 613.5q37 43.5 58 84.5h49q22 -41 58.5 -84.5t66.5 -65.5h-65
q-24 19 -50 48.5t-34 47.5q-9 -19 -35 -48t-50 -48h-65q30 22 67 65.5z" />
    <glyph glyph-name="odieresis" unicode="&#xf6;" horiz-adv-x="518" 
d="M112.5 36.5q-52.5 47.5 -52.5 133.5v130q0 86 52.5 133.5t146.5 47.5t146.5 -47.5t52.5 -133.5v-130q0 -86 -52.5 -133.5t-146.5 -47.5t-146.5 47.5zM356.5 76q34.5 33 34.5 94v130q0 61 -34.5 94t-97.5 33t-97.5 -33t-34.5 -94v-130q0 -61 34.5 -94t97.5 -33t97.5 33z
M148.5 559.5q-12.5 12.5 -12.5 29.5t12.5 29.5t29.5 12.5t29 -12.5t12 -29.5t-12 -29.5t-29 -12.5t-29.5 12.5zM311 559.5q-12 12.5 -12 29.5t12 29.5t30 12.5q17 0 29.5 -12.5t12.5 -29.5t-12.5 -29.5t-29.5 -12.5q-18 0 -30 12.5z" />
    <glyph glyph-name="uni1ECD" unicode="&#x1ecd;" horiz-adv-x="518" 
d="M112.5 36.5q-52.5 47.5 -52.5 133.5v130q0 86 52.5 133.5t146.5 47.5t146.5 -47.5t52.5 -133.5v-130q0 -86 -52.5 -133.5t-146.5 -47.5t-146.5 47.5zM356.5 76q34.5 33 34.5 94v130q0 61 -34.5 94t-97.5 33t-97.5 -33t-34.5 -94v-130q0 -61 34.5 -94t97.5 -33t97.5 33z
M225.5 -148.5q-13.5 13.5 -13.5 33.5q0 19 13.5 33t33.5 14q19 0 33 -14t14 -33q0 -20 -14 -33.5t-33 -13.5q-20 0 -33.5 13.5z" />
    <glyph glyph-name="ograve" unicode="&#xf2;" horiz-adv-x="518" 
d="M112.5 36.5q-52.5 47.5 -52.5 133.5v130q0 86 52.5 133.5t146.5 47.5t146.5 -47.5t52.5 -133.5v-130q0 -86 -52.5 -133.5t-146.5 -47.5t-146.5 47.5zM356.5 76q34.5 33 34.5 94v130q0 61 -34.5 94t-97.5 33t-97.5 -33t-34.5 -94v-130q0 -61 34.5 -94t97.5 -33t97.5 33z
M130 693h74l81 -145h-56z" />
    <glyph glyph-name="uni1ECF" unicode="&#x1ecf;" horiz-adv-x="518" 
d="M112.5 36.5q-52.5 47.5 -52.5 133.5v130q0 86 52.5 133.5t146.5 47.5t146.5 -47.5t52.5 -133.5v-130q0 -86 -52.5 -133.5t-146.5 -47.5t-146.5 47.5zM356.5 76q34.5 33 34.5 94v130q0 61 -34.5 94t-97.5 33t-97.5 -33t-34.5 -94v-130q0 -61 34.5 -94t97.5 -33t97.5 33z
M339.5 611q-20.5 -18 -57.5 -25v-38h-53v65q41 5 58 15.5t17 29.5q0 21 -12 30t-35 9t-50 -9l-12 40q31 14 68 14q44 0 70.5 -20t26.5 -59q0 -34 -20.5 -52z" />
    <glyph glyph-name="ohorn" unicode="&#x1a1;" horiz-adv-x="532" 
d="M538 396.5q-26 -40.5 -84 -50.5q4 -28 4 -46v-130q0 -86 -52.5 -133.5t-146.5 -47.5t-146.5 47.5t-52.5 133.5v130q0 86 52.5 133.5t146.5 47.5q67 0 113.5 -24.5t68.5 -71.5q34 9 48 40.5t14 92.5h63q-2 -81 -28 -121.5zM391 300q0 61 -34.5 94t-97.5 33t-97.5 -33
t-34.5 -94v-130q0 -61 34.5 -94t97.5 -33t97.5 33t34.5 94v130z" />
    <glyph glyph-name="uni1EDB" unicode="&#x1edb;" horiz-adv-x="532" 
d="M538 396.5q-26 -40.5 -84 -50.5q4 -28 4 -46v-130q0 -86 -52.5 -133.5t-146.5 -47.5t-146.5 47.5t-52.5 133.5v130q0 86 52.5 133.5t146.5 47.5q67 0 113.5 -24.5t68.5 -71.5q34 9 48 40.5t14 92.5h63q-2 -81 -28 -121.5zM391 300q0 61 -34.5 94t-97.5 33t-97.5 -33
t-34.5 -94v-130q0 -61 34.5 -94t97.5 -33t97.5 33t34.5 94v130zM311 693h74l-99 -145h-55z" />
    <glyph glyph-name="uni1EE3" unicode="&#x1ee3;" horiz-adv-x="532" 
d="M538 396.5q-26 -40.5 -84 -50.5q4 -28 4 -46v-130q0 -86 -52.5 -133.5t-146.5 -47.5t-146.5 47.5t-52.5 133.5v130q0 86 52.5 133.5t146.5 47.5q67 0 113.5 -24.5t68.5 -71.5q34 9 48 40.5t14 92.5h63q-2 -81 -28 -121.5zM391 300q0 61 -34.5 94t-97.5 33t-97.5 -33
t-34.5 -94v-130q0 -61 34.5 -94t97.5 -33t97.5 33t34.5 94v130zM225.5 -148.5q-13.5 13.5 -13.5 33.5q0 19 13.5 33t33.5 14q19 0 33 -14t14 -33q0 -20 -14 -33.5t-33 -13.5q-20 0 -33.5 13.5z" />
    <glyph glyph-name="uni1EDD" unicode="&#x1edd;" horiz-adv-x="532" 
d="M538 396.5q-26 -40.5 -84 -50.5q4 -28 4 -46v-130q0 -86 -52.5 -133.5t-146.5 -47.5t-146.5 47.5t-52.5 133.5v130q0 86 52.5 133.5t146.5 47.5q67 0 113.5 -24.5t68.5 -71.5q34 9 48 40.5t14 92.5h63q-2 -81 -28 -121.5zM391 300q0 61 -34.5 94t-97.5 33t-97.5 -33
t-34.5 -94v-130q0 -61 34.5 -94t97.5 -33t97.5 33t34.5 94v130zM130 693h74l81 -145h-56z" />
    <glyph glyph-name="uni1EDF" unicode="&#x1edf;" horiz-adv-x="532" 
d="M538 396.5q-26 -40.5 -84 -50.5q4 -28 4 -46v-130q0 -86 -52.5 -133.5t-146.5 -47.5t-146.5 47.5t-52.5 133.5v130q0 86 52.5 133.5t146.5 47.5q67 0 113.5 -24.5t68.5 -71.5q34 9 48 40.5t14 92.5h63q-2 -81 -28 -121.5zM391 300q0 61 -34.5 94t-97.5 33t-97.5 -33
t-34.5 -94v-130q0 -61 34.5 -94t97.5 -33t97.5 33t34.5 94v130zM339.5 611q-20.5 -18 -57.5 -25v-38h-53v65q41 5 58 15.5t17 29.5q0 21 -12 30t-35 9t-50 -9l-12 40q31 14 68 14q44 0 70.5 -20t26.5 -59q0 -34 -20.5 -52z" />
    <glyph glyph-name="uni1EE1" unicode="&#x1ee1;" horiz-adv-x="532" 
d="M538 396.5q-26 -40.5 -84 -50.5q4 -28 4 -46v-130q0 -86 -52.5 -133.5t-146.5 -47.5t-146.5 47.5t-52.5 133.5v130q0 86 52.5 133.5t146.5 47.5q67 0 113.5 -24.5t68.5 -71.5q34 9 48 40.5t14 92.5h63q-2 -81 -28 -121.5zM391 300q0 61 -34.5 94t-97.5 33t-97.5 -33
t-34.5 -94v-130q0 -61 34.5 -94t97.5 -33t97.5 33t34.5 94v130zM130 629.5q23 29.5 67 29.5q21 0 37.5 -6.5t38.5 -19.5q18 -10 29 -14.5t23 -4.5q19 0 28 11.5t14 37.5h46q-3 -43 -25.5 -72.5t-62.5 -29.5q-21 0 -38.5 7t-37.5 19q-18 10 -29 14.5t-23 4.5q-21 0 -30.5 -12
t-15.5 -39h-46q2 45 25 74.5z" />
    <glyph glyph-name="ohungarumlaut" unicode="&#x151;" horiz-adv-x="518" 
d="M112.5 36.5q-52.5 47.5 -52.5 133.5v130q0 86 52.5 133.5t146.5 47.5t146.5 -47.5t52.5 -133.5v-130q0 -86 -52.5 -133.5t-146.5 -47.5t-146.5 47.5zM356.5 76q34.5 33 34.5 94v130q0 61 -34.5 94t-97.5 33t-97.5 -33t-34.5 -94v-130q0 -61 34.5 -94t97.5 -33t97.5 33z
M218 693h67l-81 -145h-53zM381 693h67l-82 -145h-52z" />
    <glyph glyph-name="omacron" unicode="&#x14d;" horiz-adv-x="518" 
d="M112.5 36.5q-52.5 47.5 -52.5 133.5v130q0 86 52.5 133.5t146.5 47.5t146.5 -47.5t52.5 -133.5v-130q0 -86 -52.5 -133.5t-146.5 -47.5t-146.5 47.5zM356.5 76q34.5 33 34.5 94v130q0 61 -34.5 94t-97.5 33t-97.5 -33t-34.5 -94v-130q0 -61 34.5 -94t97.5 -33t97.5 33z
M109 621h299v-52h-299v52z" />
    <glyph glyph-name="oslash" unicode="&#xf8;" horiz-adv-x="518" 
d="M439.5 387.5q18.5 -37.5 18.5 -87.5v-130q0 -86 -52.5 -133.5t-146.5 -47.5q-57 0 -99 18l-34 -67h-45l44 86q-65 48 -65 144v130q0 86 52.5 133.5t146.5 47.5q52 0 91 -15l33 64h45l-42 -82q35 -23 53.5 -60.5zM154 84l170 331q-27 12 -65 12q-63 0 -97.5 -33t-34.5 -94
v-130q0 -53 27 -86zM391 300q0 58 -33 93l-171 -335q29 -15 72 -15q63 0 97.5 33t34.5 94v130z" />
    <glyph glyph-name="oslashacute" unicode="&#x1ff;" horiz-adv-x="518" 
d="M439.5 387.5q18.5 -37.5 18.5 -87.5v-130q0 -86 -52.5 -133.5t-146.5 -47.5q-57 0 -99 18l-34 -67h-45l44 86q-65 48 -65 144v130q0 86 52.5 133.5t146.5 47.5q52 0 91 -15l33 64h45l-42 -82q35 -23 53.5 -60.5zM154 84l170 331q-27 12 -65 12q-63 0 -97.5 -33t-34.5 -94
v-130q0 -53 27 -86zM391 300q0 58 -33 93l-171 -335q29 -15 72 -15q63 0 97.5 33t34.5 94v130zM311 693h74l-99 -145h-55z" />
    <glyph glyph-name="otilde" unicode="&#xf5;" horiz-adv-x="518" 
d="M112.5 36.5q-52.5 47.5 -52.5 133.5v130q0 86 52.5 133.5t146.5 47.5t146.5 -47.5t52.5 -133.5v-130q0 -86 -52.5 -133.5t-146.5 -47.5t-146.5 47.5zM356.5 76q34.5 33 34.5 94v130q0 61 -34.5 94t-97.5 33t-97.5 -33t-34.5 -94v-130q0 -61 34.5 -94t97.5 -33t97.5 33z
M130 629.5q23 29.5 67 29.5q21 0 37.5 -6.5t38.5 -19.5q18 -10 29 -14.5t23 -4.5q19 0 28 11.5t14 37.5h46q-3 -43 -25.5 -72.5t-62.5 -29.5q-21 0 -38.5 7t-37.5 19q-18 10 -29 14.5t-23 4.5q-21 0 -30.5 -12t-15.5 -39h-46q2 45 25 74.5z" />
    <glyph glyph-name="oe" unicode="&#x153;" horiz-adv-x="828" 
d="M112 37q-52 48 -52 133v130q0 86 52.5 133.5t146.5 47.5q118 0 166 -80q22 39 64 59t101 20q92 0 142.5 -47t50.5 -133q0 -55 -20.5 -75.5t-76.5 -20.5h-228v-42q0 -60 34.5 -89.5t105.5 -29.5q43 0 76 13t61 42l42 -39q-61 -70 -179 -70q-135 0 -176 77
q-50 -77 -165 -77q-93 0 -145 48zM356.5 76q34.5 33 34.5 94v130q0 61 -34.5 94t-97.5 33t-97.5 -33t-34.5 -94v-130q0 -61 34.5 -94t97.5 -33t97.5 33zM658 253q34 0 46 11.5t12 43.5q0 56 -34 87.5t-95 31.5q-60 0 -94.5 -31.5t-34.5 -85.5v-57h200z" />
    <glyph glyph-name="p" unicode="p" horiz-adv-x="570" 
d="M423 449.5q46 -31.5 69 -83.5t23 -115v-32q0 -63 -23 -115t-69 -83.5t-112 -31.5q-109 0 -158 78v-286h-67v604q0 18 -6.5 29.5t-24.5 26.5l44 40q26 -15 38.5 -33t13.5 -45q53 78 160 78q66 0 112 -31.5zM448 251q0 80 -41 128t-109 48q-58 0 -93 -27t-52 -81v-168
q17 -54 52 -81t93 -27q68 0 109 48t41 128v32z" />
    <glyph glyph-name="thorn" unicode="&#xfe;" horiz-adv-x="570" 
d="M86 629q0 18 -6.5 29.5t-24.5 26.5l44 40q31 -17 42.5 -38.5t11.5 -59.5v-225q24 39 64.5 59t93.5 20q61 0 107 -28.5t71.5 -81t25.5 -120.5v-32q0 -69 -25.5 -121t-73 -80.5t-109.5 -28.5q-52 0 -91 20t-63 58v-286h-67v848zM407 91q41 48 41 128v32q0 80 -41 128
t-109 48q-58 0 -93 -27t-52 -81v-168q17 -54 52 -81t93 -27q68 0 109 48z" />
    <glyph glyph-name="q" unicode="q" horiz-adv-x="551" 
d="M417 67q-24 -38 -64.5 -58t-92.5 -20q-94 0 -149.5 62.5t-55.5 167.5v32q0 69 25.5 121t72.5 80.5t109 28.5q51 0 91 -19.5t64 -55.5v64h67v-689h-67v286zM365 70q35 27 52 81v168q-17 54 -52 81t-93 27q-68 0 -109 -48t-41 -128v-32q0 -80 41 -128t109 -48q58 0 93 27z
" />
    <glyph glyph-name="r" unicode="r" horiz-adv-x="389" 
d="M374 463l-18 -61q-29 17 -64 17q-49 0 -86 -46t-53 -127v-246h-67v385q0 18 -6.5 29.5t-24.5 26.5l45 40q30 -17 41.5 -38.5t11.5 -59.5v-26q23 59 63.5 91.5t92.5 32.5q37 0 65 -18z" />
    <glyph glyph-name="racute" unicode="&#x155;" horiz-adv-x="389" 
d="M374 463l-18 -61q-29 17 -64 17q-49 0 -86 -46t-53 -127v-246h-67v385q0 18 -6.5 29.5t-24.5 26.5l45 40q30 -17 41.5 -38.5t11.5 -59.5v-26q23 59 63.5 91.5t92.5 32.5q37 0 65 -18zM246 693h74l-99 -145h-55z" />
    <glyph glyph-name="rcaron" unicode="&#x159;" horiz-adv-x="389" 
d="M374 463l-18 -61q-29 17 -64 17q-49 0 -86 -46t-53 -127v-246h-67v385q0 18 -6.5 29.5t-24.5 26.5l45 40q30 -17 41.5 -38.5t11.5 -59.5v-26q23 59 63.5 91.5t92.5 32.5q37 0 65 -18zM111 631.5q-37 43.5 -67 66.5h65q24 -19 50 -48.5t35 -48.5q8 19 34 48.5t50 48.5h65
q-30 -23 -66.5 -66.5t-58.5 -83.5h-49q-21 40 -58 83.5z" />
    <glyph glyph-name="uni0157" unicode="&#x157;" horiz-adv-x="389" 
d="M374 463l-18 -61q-29 17 -64 17q-49 0 -86 -46t-53 -127v-246h-67v385q0 18 -6.5 29.5t-24.5 26.5l45 40q30 -17 41.5 -38.5t11.5 -59.5v-26q23 59 63.5 91.5t92.5 32.5q37 0 65 -18zM157.5 -85.5q13.5 -16.5 13.5 -44.5q0 -41 -20 -74.5t-54 -59.5l-23 22q47 34 53 79
q-10 -6 -24 -6q-17 0 -26.5 11.5t-9.5 31.5q0 21 15.5 39t37.5 18q24 0 37.5 -16.5z" />
    <glyph glyph-name="uni1E5B" unicode="&#x1e5b;" horiz-adv-x="389" 
d="M374 463l-18 -61q-29 17 -64 17q-49 0 -86 -46t-53 -127v-246h-67v385q0 18 -6.5 29.5t-24.5 26.5l45 40q30 -17 41.5 -38.5t11.5 -59.5v-26q23 59 63.5 91.5t92.5 32.5q37 0 65 -18zM86.5 -148.5q-13.5 13.5 -13.5 33.5q0 19 13.5 33t33.5 14q19 0 33 -14t14 -33
q0 -20 -14 -33.5t-33 -13.5q-20 0 -33.5 13.5z" />
    <glyph glyph-name="uni1E5D" unicode="&#x1e5d;" horiz-adv-x="389" 
d="M374 463l-18 -61q-29 17 -64 17q-49 0 -86 -46t-53 -127v-246h-67v385q0 18 -6.5 29.5t-24.5 26.5l45 40q30 -17 41.5 -38.5t11.5 -59.5v-26q23 59 63.5 91.5t92.5 32.5q37 0 65 -18zM86.5 -148.5q-13.5 13.5 -13.5 33.5q0 19 13.5 33t33.5 14q19 0 33 -14t14 -33
q0 -20 -14 -33.5t-33 -13.5q-20 0 -33.5 13.5zM44 621h299v-52h-299v52z" />
    <glyph glyph-name="uni1E5F" unicode="&#x1e5f;" horiz-adv-x="389" 
d="M374 463l-18 -61q-29 17 -64 17q-49 0 -86 -46t-53 -127v-246h-67v385q0 18 -6.5 29.5t-24.5 26.5l45 40q30 -17 41.5 -38.5t11.5 -59.5v-26q23 59 63.5 91.5t92.5 32.5q37 0 65 -18zM-30 -81h299v-53h-299v53z" />
    <glyph glyph-name="s" unicode="s" horiz-adv-x="452" 
d="M118.5 8q-41.5 19 -75.5 62l43 37q31 -35 61 -49.5t72 -14.5q60 0 91 21t31 61q0 25 -12 40t-42 26t-91 22q-140 25 -140 134q0 63 45.5 98.5t125.5 35.5q57 0 99.5 -19.5t64.5 -56.5l-43 -36q-23 30 -52.5 44t-68.5 14q-50 0 -78.5 -21t-28.5 -58q0 -33 23.5 -51
t82.5 -30q69 -15 107.5 -32.5t55 -43.5t16.5 -66q0 -67 -47.5 -101.5t-138.5 -34.5q-59 0 -100.5 19z" />
    <glyph glyph-name="sacute" unicode="&#x15b;" horiz-adv-x="452" 
d="M118.5 8q-41.5 19 -75.5 62l43 37q31 -35 61 -49.5t72 -14.5q60 0 91 21t31 61q0 25 -12 40t-42 26t-91 22q-140 25 -140 134q0 63 45.5 98.5t125.5 35.5q57 0 99.5 -19.5t64.5 -56.5l-43 -36q-23 30 -52.5 44t-68.5 14q-50 0 -78.5 -21t-28.5 -58q0 -33 23.5 -51
t82.5 -30q69 -15 107.5 -32.5t55 -43.5t16.5 -66q0 -67 -47.5 -101.5t-138.5 -34.5q-59 0 -100.5 19zM277 693h74l-99 -145h-55z" />
    <glyph glyph-name="scaron" unicode="&#x161;" horiz-adv-x="452" 
d="M118.5 8q-41.5 19 -75.5 62l43 37q31 -35 61 -49.5t72 -14.5q60 0 91 21t31 61q0 25 -12 40t-42 26t-91 22q-140 25 -140 134q0 63 45.5 98.5t125.5 35.5q57 0 99.5 -19.5t64.5 -56.5l-43 -36q-23 30 -52.5 44t-68.5 14q-50 0 -78.5 -21t-28.5 -58q0 -33 23.5 -51
t82.5 -30q69 -15 107.5 -32.5t55 -43.5t16.5 -66q0 -67 -47.5 -101.5t-138.5 -34.5q-59 0 -100.5 19zM142 631.5q-37 43.5 -67 66.5h65q24 -19 50 -48.5t35 -48.5q8 19 34 48.5t50 48.5h65q-30 -23 -66.5 -66.5t-58.5 -83.5h-49q-21 40 -58 83.5z" />
    <glyph glyph-name="scedilla" unicode="&#x15f;" horiz-adv-x="452" 
d="M365 29.5q-40 -34.5 -118 -39.5l-11 -37q82 -4 82 -74q0 -76 -109 -76q-50 0 -88 19l12 41q39 -16 70 -16t45 7.5t14 24.5q0 16 -11.5 25.5t-44.5 9.5q-6 0 -30 -2l19 78q-49 4 -85.5 23t-66.5 57l43 37q31 -35 61 -49.5t72 -14.5q60 0 91 21t31 61q0 25 -12 40t-42 26
t-91 22q-140 25 -140 134q0 63 45.5 98.5t125.5 35.5q57 0 99.5 -19.5t64.5 -56.5l-43 -36q-23 30 -52.5 44t-68.5 14q-50 0 -78.5 -21t-28.5 -58q0 -33 23.5 -51t82.5 -30q69 -15 107.5 -32.5t55 -43.5t16.5 -66q0 -61 -40 -95.5z" />
    <glyph glyph-name="scircumflex" unicode="&#x15d;" horiz-adv-x="452" 
d="M118.5 8q-41.5 19 -75.5 62l43 37q31 -35 61 -49.5t72 -14.5q60 0 91 21t31 61q0 25 -12 40t-42 26t-91 22q-140 25 -140 134q0 63 45.5 98.5t125.5 35.5q57 0 99.5 -19.5t64.5 -56.5l-43 -36q-23 30 -52.5 44t-68.5 14q-50 0 -78.5 -21t-28.5 -58q0 -33 23.5 -51
t82.5 -30q69 -15 107.5 -32.5t55 -43.5t16.5 -66q0 -67 -47.5 -101.5t-138.5 -34.5q-59 0 -100.5 19zM142 613.5q37 43.5 58 84.5h49q22 -41 58.5 -84.5t66.5 -65.5h-65q-24 19 -50 48.5t-34 47.5q-9 -19 -35 -48t-50 -48h-65q30 22 67 65.5z" />
    <glyph glyph-name="uni0219" unicode="&#x219;" horiz-adv-x="452" 
d="M118.5 8q-41.5 19 -75.5 62l43 37q31 -35 61 -49.5t72 -14.5q60 0 91 21t31 61q0 25 -12 40t-42 26t-91 22q-140 25 -140 134q0 63 45.5 98.5t125.5 35.5q57 0 99.5 -19.5t64.5 -56.5l-43 -36q-23 30 -52.5 44t-68.5 14q-50 0 -78.5 -21t-28.5 -58q0 -33 23.5 -51
t82.5 -30q69 -15 107.5 -32.5t55 -43.5t16.5 -66q0 -67 -47.5 -101.5t-138.5 -34.5q-59 0 -100.5 19zM261.5 -85.5q13.5 -16.5 13.5 -44.5q0 -41 -20 -74.5t-54 -59.5l-23 22q47 34 53 79q-10 -6 -24 -6q-17 0 -26.5 11.5t-9.5 31.5q0 21 15.5 39t37.5 18q24 0 37.5 -16.5z
" />
    <glyph glyph-name="uni1E61" unicode="&#x1e61;" horiz-adv-x="452" 
d="M118.5 8q-41.5 19 -75.5 62l43 37q31 -35 61 -49.5t72 -14.5q60 0 91 21t31 61q0 25 -12 40t-42 26t-91 22q-140 25 -140 134q0 63 45.5 98.5t125.5 35.5q57 0 99.5 -19.5t64.5 -56.5l-43 -36q-23 30 -52.5 44t-68.5 14q-50 0 -78.5 -21t-28.5 -58q0 -33 23.5 -51
t82.5 -30q69 -15 107.5 -32.5t55 -43.5t16.5 -66q0 -67 -47.5 -101.5t-138.5 -34.5q-59 0 -100.5 19zM192 561q-14 14 -14 34q0 19 14 33t33 14t33 -14t14 -33q0 -20 -14 -34t-33 -14t-33 14z" />
    <glyph glyph-name="uni1E63" unicode="&#x1e63;" horiz-adv-x="452" 
d="M118.5 8q-41.5 19 -75.5 62l43 37q31 -35 61 -49.5t72 -14.5q60 0 91 21t31 61q0 25 -12 40t-42 26t-91 22q-140 25 -140 134q0 63 45.5 98.5t125.5 35.5q57 0 99.5 -19.5t64.5 -56.5l-43 -36q-23 30 -52.5 44t-68.5 14q-50 0 -78.5 -21t-28.5 -58q0 -33 23.5 -51
t82.5 -30q69 -15 107.5 -32.5t55 -43.5t16.5 -66q0 -67 -47.5 -101.5t-138.5 -34.5q-59 0 -100.5 19zM190.5 -148.5q-13.5 13.5 -13.5 33.5q0 19 13.5 33t33.5 14q19 0 33 -14t14 -33q0 -20 -14 -33.5t-33 -13.5q-20 0 -33.5 13.5z" />
    <glyph glyph-name="germandbls" unicode="&#xdf;" horiz-adv-x="585" 
d="M502.5 344.5q27.5 -34.5 27.5 -81.5v-111q0 -78 -47 -120.5t-135 -42.5q-60 0 -112 20v55q43 -21 102 -21q62 0 93.5 28.5t31.5 83.5v108q0 46 -35.5 74.5t-93.5 28.5h-56v54h54q55 0 87.5 30.5t32.5 83.5q0 55 -36.5 85.5t-102.5 30.5q-151 0 -151 -169v-481h-67v481
q0 112 53 167.5t160 55.5q100 0 155.5 -44.5t55.5 -124.5q0 -49 -24 -86t-68 -54q48 -16 75.5 -50.5z" />
    <glyph glyph-name="t" unicode="t" horiz-adv-x="323" 
d="M148 416v-280q0 -89 78 -89h57v-53h-57q-75 0 -110 34.5t-35 107.5v443q0 18 -6.5 29.5t-24.5 26.5l45 40q30 -17 41.5 -38.5t11.5 -59.5v-107h135v-54h-135z" />
    <glyph glyph-name="tbar" unicode="&#x167;" horiz-adv-x="369" 
d="M194 416v-127h118v-41h-118v-112q0 -89 78 -89h57v-53h-57q-75 0 -110 34.5t-35 107.5v112h-82v41h82v290q0 18 -6.5 29.5t-24.5 26.5l45 40q30 -17 41.5 -38.5t11.5 -59.5v-107h135v-54h-135z" />
    <glyph glyph-name="tcaron" unicode="&#x165;" horiz-adv-x="334" 
d="M148 416v-280q0 -89 78 -89h57v-53h-57q-75 0 -110 34.5t-35 107.5v443q0 18 -6.5 29.5t-24.5 26.5l45 40q30 -17 41.5 -38.5t11.5 -59.5v-107h135v-54h-135zM298 729q13 -17 13 -45q0 -81 -74 -140l-22 23q48 36 52 84q-8 -5 -23 -5q-17 0 -26.5 11.5t-9.5 31.5
q0 21 15.5 39t37.5 18q24 0 37 -17z" />
    <glyph glyph-name="uni0163" unicode="&#x163;" horiz-adv-x="323" 
d="M289 -121q0 -76 -109 -76q-50 0 -88 19l12 41q39 -16 70 -16t45 7.5t14 24.5q0 16 -11.5 25.5t-44.5 9.5q-6 0 -30 -2l21 88q-44 12 -65.5 45t-21.5 91v443q0 18 -6.5 29.5t-24.5 26.5l45 40q30 -17 41.5 -38.5t11.5 -59.5v-107h135v-54h-135v-280q0 -89 78 -89h57v-53
h-57h-7l-12 -41q82 -4 82 -74z" />
    <glyph glyph-name="uni021B" unicode="&#x21b;" horiz-adv-x="323" 
d="M148 416v-280q0 -89 78 -89h57v-53h-57q-75 0 -110 34.5t-35 107.5v443q0 18 -6.5 29.5t-24.5 26.5l45 40q30 -17 41.5 -38.5t11.5 -59.5v-107h135v-54h-135zM232.5 -85.5q13.5 -16.5 13.5 -44.5q0 -41 -20 -74.5t-54 -59.5l-23 22q47 34 53 79q-10 -6 -24 -6
q-17 0 -26.5 11.5t-9.5 31.5q0 21 15.5 39t37.5 18q24 0 37.5 -16.5z" />
    <glyph glyph-name="uni1E97" unicode="&#x1e97;" horiz-adv-x="323" 
d="M148 416v-280q0 -89 78 -89h57v-53h-57q-75 0 -110 34.5t-35 107.5v443q0 18 -6.5 29.5t-24.5 26.5l45 40q30 -17 41.5 -38.5t11.5 -59.5v-107h135v-54h-135zM4.5 737.5q-12.5 12.5 -12.5 29.5t12.5 29.5t29.5 12.5t29 -12.5t12 -29.5t-12 -29.5t-29 -12.5t-29.5 12.5z
M167 737.5q-12 12.5 -12 29.5t12 29.5t30 12.5q17 0 29.5 -12.5t12.5 -29.5t-12.5 -29.5t-29.5 -12.5q-18 0 -30 12.5z" />
    <glyph glyph-name="uni1E6D" unicode="&#x1e6d;" horiz-adv-x="323" 
d="M148 416v-280q0 -89 78 -89h57v-53h-57q-75 0 -110 34.5t-35 107.5v443q0 18 -6.5 29.5t-24.5 26.5l45 40q30 -17 41.5 -38.5t11.5 -59.5v-107h135v-54h-135zM161.5 -148.5q-13.5 13.5 -13.5 33.5q0 19 13.5 33t33.5 14q19 0 33 -14t14 -33q0 -20 -14 -33.5t-33 -13.5
q-20 0 -33.5 13.5z" />
    <glyph glyph-name="uni1E6F" unicode="&#x1e6f;" horiz-adv-x="323" 
d="M148 416v-280q0 -89 78 -89h57v-53h-57q-75 0 -110 34.5t-35 107.5v443q0 18 -6.5 29.5t-24.5 26.5l45 40q30 -17 41.5 -38.5t11.5 -59.5v-107h135v-54h-135zM45 -81h299v-53h-299v53z" />
    <glyph glyph-name="u" unicode="u" horiz-adv-x="551" 
d="M470.5 55.5q6.5 -11.5 25.5 -27.5l-45 -39q-30 17 -42 38.5t-12 59.5v7q-25 -51 -68 -78t-101 -27q-73 0 -113 43.5t-40 122.5v315h67v-311q0 -56 27.5 -86t77.5 -30q54 0 93.5 39t56.5 107v281h67v-385q0 -18 6.5 -29.5z" />
    <glyph glyph-name="uacute" unicode="&#xfa;" horiz-adv-x="551" 
d="M470.5 55.5q6.5 -11.5 25.5 -27.5l-45 -39q-30 17 -42 38.5t-12 59.5v7q-25 -51 -68 -78t-101 -27q-73 0 -113 43.5t-40 122.5v315h67v-311q0 -56 27.5 -86t77.5 -30q54 0 93.5 39t56.5 107v281h67v-385q0 -18 6.5 -29.5zM321 693h74l-99 -145h-55z" />
    <glyph glyph-name="ubreve" unicode="&#x16d;" horiz-adv-x="551" 
d="M470.5 55.5q6.5 -11.5 25.5 -27.5l-45 -39q-30 17 -42 38.5t-12 59.5v7q-25 -51 -68 -78t-101 -27q-73 0 -113 43.5t-40 122.5v315h67v-311q0 -56 27.5 -86t77.5 -30q54 0 93.5 39t56.5 107v281h67v-385q0 -18 6.5 -29.5zM162.5 581.5q-39.5 38.5 -39.5 103.5h49
q3 -42 28.5 -66.5t68.5 -24.5t68.5 24.5t28.5 66.5h49q0 -65 -39.5 -103.5t-106.5 -38.5t-106.5 38.5z" />
    <glyph glyph-name="uni01D4" unicode="&#x1d4;" horiz-adv-x="551" 
d="M470.5 55.5q6.5 -11.5 25.5 -27.5l-45 -39q-30 17 -42 38.5t-12 59.5v7q-25 -51 -68 -78t-101 -27q-73 0 -113 43.5t-40 122.5v315h67v-311q0 -56 27.5 -86t77.5 -30q54 0 93.5 39t56.5 107v281h67v-385q0 -18 6.5 -29.5zM186 631.5q-37 43.5 -67 66.5h65
q24 -19 50 -48.5t35 -48.5q8 19 34 48.5t50 48.5h65q-30 -23 -66.5 -66.5t-58.5 -83.5h-49q-21 40 -58 83.5z" />
    <glyph glyph-name="ucircumflex" unicode="&#xfb;" horiz-adv-x="551" 
d="M470.5 55.5q6.5 -11.5 25.5 -27.5l-45 -39q-30 17 -42 38.5t-12 59.5v7q-25 -51 -68 -78t-101 -27q-73 0 -113 43.5t-40 122.5v315h67v-311q0 -56 27.5 -86t77.5 -30q54 0 93.5 39t56.5 107v281h67v-385q0 -18 6.5 -29.5zM186 613.5q37 43.5 58 84.5h49
q22 -41 58.5 -84.5t66.5 -65.5h-65q-24 19 -50 48.5t-34 47.5q-9 -19 -35 -48t-50 -48h-65q30 22 67 65.5z" />
    <glyph glyph-name="udieresis" unicode="&#xfc;" horiz-adv-x="551" 
d="M470.5 55.5q6.5 -11.5 25.5 -27.5l-45 -39q-30 17 -42 38.5t-12 59.5v7q-25 -51 -68 -78t-101 -27q-73 0 -113 43.5t-40 122.5v315h67v-311q0 -56 27.5 -86t77.5 -30q54 0 93.5 39t56.5 107v281h67v-385q0 -18 6.5 -29.5zM158.5 559.5q-12.5 12.5 -12.5 29.5t12.5 29.5
t29.5 12.5t29 -12.5t12 -29.5t-12 -29.5t-29 -12.5t-29.5 12.5zM321 559.5q-12 12.5 -12 29.5t12 29.5t30 12.5q17 0 29.5 -12.5t12.5 -29.5t-12.5 -29.5t-29.5 -12.5q-18 0 -30 12.5z" />
    <glyph glyph-name="uni01D8" unicode="&#x1d8;" horiz-adv-x="551" 
d="M470.5 55.5q6.5 -11.5 25.5 -27.5l-45 -39q-30 17 -42 38.5t-12 59.5v7q-25 -51 -68 -78t-101 -27q-73 0 -113 43.5t-40 122.5v315h67v-311q0 -56 27.5 -86t77.5 -30q54 0 93.5 39t56.5 107v281h67v-385q0 -18 6.5 -29.5zM304 778h74l-82 -111h-55zM158.5 559.5
q-12.5 12.5 -12.5 29.5t12.5 29.5t29.5 12.5t29 -12.5t12 -29.5t-12 -29.5t-29 -12.5t-29.5 12.5zM321 559.5q-12 12.5 -12 29.5t12 29.5t30 12.5q17 0 29.5 -12.5t12.5 -29.5t-12.5 -29.5t-29.5 -12.5q-18 0 -30 12.5z" />
    <glyph glyph-name="uni01DA" unicode="&#x1da;" horiz-adv-x="551" 
d="M470.5 55.5q6.5 -11.5 25.5 -27.5l-45 -39q-30 17 -42 38.5t-12 59.5v7q-25 -51 -68 -78t-101 -27q-73 0 -113 43.5t-40 122.5v315h67v-311q0 -56 27.5 -86t77.5 -30q54 0 93.5 39t56.5 107v281h67v-385q0 -18 6.5 -29.5zM192.5 738q-34.5 34 -62.5 53h60
q22 -14 46 -37.5t33 -38.5q8 15 32 38.5t46 37.5h60q-28 -18 -62 -52t-54 -66h-45q-19 31 -53.5 65zM158.5 559.5q-12.5 12.5 -12.5 29.5t12.5 29.5t29.5 12.5t29 -12.5t12 -29.5t-12 -29.5t-29 -12.5t-29.5 12.5zM321 559.5q-12 12.5 -12 29.5t12 29.5t30 12.5
q17 0 29.5 -12.5t12.5 -29.5t-12.5 -29.5t-29.5 -12.5q-18 0 -30 12.5z" />
    <glyph glyph-name="uni01DC" unicode="&#x1dc;" horiz-adv-x="551" 
d="M470.5 55.5q6.5 -11.5 25.5 -27.5l-45 -39q-30 17 -42 38.5t-12 59.5v7q-25 -51 -68 -78t-101 -27q-73 0 -113 43.5t-40 122.5v315h67v-311q0 -56 27.5 -86t77.5 -30q54 0 93.5 39t56.5 107v281h67v-385q0 -18 6.5 -29.5zM159 779h74l63 -111h-55zM158.5 559.5
q-12.5 12.5 -12.5 29.5t12.5 29.5t29.5 12.5t29 -12.5t12 -29.5t-12 -29.5t-29 -12.5t-29.5 12.5zM321 559.5q-12 12.5 -12 29.5t12 29.5t30 12.5q17 0 29.5 -12.5t12.5 -29.5t-12.5 -29.5t-29.5 -12.5q-18 0 -30 12.5z" />
    <glyph glyph-name="uni01D6" unicode="&#x1d6;" horiz-adv-x="551" 
d="M470.5 55.5q6.5 -11.5 25.5 -27.5l-45 -39q-30 17 -42 38.5t-12 59.5v7q-25 -51 -68 -78t-101 -27q-73 0 -113 43.5t-40 122.5v315h67v-311q0 -56 27.5 -86t77.5 -30q54 0 93.5 39t56.5 107v281h67v-385q0 -18 6.5 -29.5zM119 741h299v-52h-299v52zM158.5 559.5
q-12.5 12.5 -12.5 29.5t12.5 29.5t29.5 12.5t29 -12.5t12 -29.5t-12 -29.5t-29 -12.5t-29.5 12.5zM321 559.5q-12 12.5 -12 29.5t12 29.5t30 12.5q17 0 29.5 -12.5t12.5 -29.5t-12.5 -29.5t-29.5 -12.5q-18 0 -30 12.5z" />
    <glyph glyph-name="uni1EE5" unicode="&#x1ee5;" horiz-adv-x="551" 
d="M470.5 55.5q6.5 -11.5 25.5 -27.5l-45 -39q-30 17 -42 38.5t-12 59.5v7q-25 -51 -68 -78t-101 -27q-73 0 -113 43.5t-40 122.5v315h67v-311q0 -56 27.5 -86t77.5 -30q54 0 93.5 39t56.5 107v281h67v-385q0 -18 6.5 -29.5zM235.5 -148.5q-13.5 13.5 -13.5 33.5
q0 19 13.5 33t33.5 14q19 0 33 -14t14 -33q0 -20 -14 -33.5t-33 -13.5q-20 0 -33.5 13.5z" />
    <glyph glyph-name="ugrave" unicode="&#xf9;" horiz-adv-x="551" 
d="M470.5 55.5q6.5 -11.5 25.5 -27.5l-45 -39q-30 17 -42 38.5t-12 59.5v7q-25 -51 -68 -78t-101 -27q-73 0 -113 43.5t-40 122.5v315h67v-311q0 -56 27.5 -86t77.5 -30q54 0 93.5 39t56.5 107v281h67v-385q0 -18 6.5 -29.5zM140 693h74l81 -145h-56z" />
    <glyph glyph-name="uni1EE7" unicode="&#x1ee7;" horiz-adv-x="551" 
d="M470.5 55.5q6.5 -11.5 25.5 -27.5l-45 -39q-30 17 -42 38.5t-12 59.5v7q-25 -51 -68 -78t-101 -27q-73 0 -113 43.5t-40 122.5v315h67v-311q0 -56 27.5 -86t77.5 -30q54 0 93.5 39t56.5 107v281h67v-385q0 -18 6.5 -29.5zM349.5 611q-20.5 -18 -57.5 -25v-38h-53v65
q41 5 58 15.5t17 29.5q0 21 -12 30t-35 9t-50 -9l-12 40q31 14 68 14q44 0 70.5 -20t26.5 -59q0 -34 -20.5 -52z" />
    <glyph glyph-name="uhorn" unicode="&#x1b0;" horiz-adv-x="559" 
d="M564.5 389.5q-31.5 -40.5 -100.5 -45.5v-259q0 -18 6.5 -29.5t25.5 -27.5l-45 -39q-30 17 -42 38.5t-12 59.5v7q-25 -51 -68 -78t-101 -27q-73 0 -113 43.5t-40 122.5v315h67v-311q0 -56 27.5 -86t77.5 -30q54 0 93.5 39t56.5 107v281h67v-87q39 7 54.5 39t15.5 96h63
q-1 -88 -32.5 -128.5z" />
    <glyph glyph-name="uni1EE9" unicode="&#x1ee9;" horiz-adv-x="559" 
d="M564.5 389.5q-31.5 -40.5 -100.5 -45.5v-259q0 -18 6.5 -29.5t25.5 -27.5l-45 -39q-30 17 -42 38.5t-12 59.5v7q-25 -51 -68 -78t-101 -27q-73 0 -113 43.5t-40 122.5v315h67v-311q0 -56 27.5 -86t77.5 -30q54 0 93.5 39t56.5 107v281h67v-87q39 7 54.5 39t15.5 96h63
q-1 -88 -32.5 -128.5zM321 693h74l-99 -145h-55z" />
    <glyph glyph-name="uni1EF1" unicode="&#x1ef1;" horiz-adv-x="559" 
d="M564.5 389.5q-31.5 -40.5 -100.5 -45.5v-259q0 -18 6.5 -29.5t25.5 -27.5l-45 -39q-30 17 -42 38.5t-12 59.5v7q-25 -51 -68 -78t-101 -27q-73 0 -113 43.5t-40 122.5v315h67v-311q0 -56 27.5 -86t77.5 -30q54 0 93.5 39t56.5 107v281h67v-87q39 7 54.5 39t15.5 96h63
q-1 -88 -32.5 -128.5zM235.5 -148.5q-13.5 13.5 -13.5 33.5q0 19 13.5 33t33.5 14q19 0 33 -14t14 -33q0 -20 -14 -33.5t-33 -13.5q-20 0 -33.5 13.5z" />
    <glyph glyph-name="uni1EEB" unicode="&#x1eeb;" horiz-adv-x="559" 
d="M564.5 389.5q-31.5 -40.5 -100.5 -45.5v-259q0 -18 6.5 -29.5t25.5 -27.5l-45 -39q-30 17 -42 38.5t-12 59.5v7q-25 -51 -68 -78t-101 -27q-73 0 -113 43.5t-40 122.5v315h67v-311q0 -56 27.5 -86t77.5 -30q54 0 93.5 39t56.5 107v281h67v-87q39 7 54.5 39t15.5 96h63
q-1 -88 -32.5 -128.5zM140 693h74l81 -145h-56z" />
    <glyph glyph-name="uni1EED" unicode="&#x1eed;" horiz-adv-x="559" 
d="M564.5 389.5q-31.5 -40.5 -100.5 -45.5v-259q0 -18 6.5 -29.5t25.5 -27.5l-45 -39q-30 17 -42 38.5t-12 59.5v7q-25 -51 -68 -78t-101 -27q-73 0 -113 43.5t-40 122.5v315h67v-311q0 -56 27.5 -86t77.5 -30q54 0 93.5 39t56.5 107v281h67v-87q39 7 54.5 39t15.5 96h63
q-1 -88 -32.5 -128.5zM349.5 611q-20.5 -18 -57.5 -25v-38h-53v65q41 5 58 15.5t17 29.5q0 21 -12 30t-35 9t-50 -9l-12 40q31 14 68 14q44 0 70.5 -20t26.5 -59q0 -34 -20.5 -52z" />
    <glyph glyph-name="uni1EEF" unicode="&#x1eef;" horiz-adv-x="559" 
d="M564.5 389.5q-31.5 -40.5 -100.5 -45.5v-259q0 -18 6.5 -29.5t25.5 -27.5l-45 -39q-30 17 -42 38.5t-12 59.5v7q-25 -51 -68 -78t-101 -27q-73 0 -113 43.5t-40 122.5v315h67v-311q0 -56 27.5 -86t77.5 -30q54 0 93.5 39t56.5 107v281h67v-87q39 7 54.5 39t15.5 96h63
q-1 -88 -32.5 -128.5zM140 629.5q23 29.5 67 29.5q21 0 37.5 -6.5t38.5 -19.5q18 -10 29 -14.5t23 -4.5q19 0 28 11.5t14 37.5h46q-3 -43 -25.5 -72.5t-62.5 -29.5q-21 0 -38.5 7t-37.5 19q-18 10 -29 14.5t-23 4.5q-21 0 -30.5 -12t-15.5 -39h-46q2 45 25 74.5z" />
    <glyph glyph-name="uhungarumlaut" unicode="&#x171;" horiz-adv-x="551" 
d="M470.5 55.5q6.5 -11.5 25.5 -27.5l-45 -39q-30 17 -42 38.5t-12 59.5v7q-25 -51 -68 -78t-101 -27q-73 0 -113 43.5t-40 122.5v315h67v-311q0 -56 27.5 -86t77.5 -30q54 0 93.5 39t56.5 107v281h67v-385q0 -18 6.5 -29.5zM228 693h67l-81 -145h-53zM391 693h67l-82 -145
h-52z" />
    <glyph glyph-name="umacron" unicode="&#x16b;" horiz-adv-x="551" 
d="M470.5 55.5q6.5 -11.5 25.5 -27.5l-45 -39q-30 17 -42 38.5t-12 59.5v7q-25 -51 -68 -78t-101 -27q-73 0 -113 43.5t-40 122.5v315h67v-311q0 -56 27.5 -86t77.5 -30q54 0 93.5 39t56.5 107v281h67v-385q0 -18 6.5 -29.5zM119 621h299v-52h-299v52z" />
    <glyph glyph-name="uogonek" unicode="&#x173;" horiz-adv-x="551" 
d="M537 -180q-33 -20 -72 -20q-56 0 -80 26t-24 59q0 65 62 124q-14 13 -20 31.5t-6 46.5v7q-25 -51 -68 -78t-101 -27q-73 0 -113 43.5t-40 122.5v315h67v-311q0 -56 27.5 -86t77.5 -30q54 0 93.5 39t56.5 107v281h67v-385q0 -18 6.5 -29.5t25.5 -27.5l-31 -27
q-23 -31 -34 -56.5t-11 -50.5q0 -24 14 -35.5t37 -11.5q21 0 54 14z" />
    <glyph glyph-name="uring" unicode="&#x16f;" horiz-adv-x="551" 
d="M470.5 55.5q6.5 -11.5 25.5 -27.5l-45 -39q-30 17 -42 38.5t-12 59.5v7q-25 -51 -68 -78t-101 -27q-73 0 -113 43.5t-40 122.5v315h67v-311q0 -56 27.5 -86t77.5 -30q54 0 93.5 39t56.5 107v281h67v-385q0 -18 6.5 -29.5zM199 561q-26 25 -26 66t26 66t70 25t70 -25
t26 -66t-26 -66t-70 -25t-70 25zM308 587.5q14 14.5 14 39.5t-14 39.5t-39 14.5t-39 -14.5t-14 -39.5t14 -39.5t39 -14.5t39 14.5z" />
    <glyph glyph-name="utilde" unicode="&#x169;" horiz-adv-x="551" 
d="M470.5 55.5q6.5 -11.5 25.5 -27.5l-45 -39q-30 17 -42 38.5t-12 59.5v7q-25 -51 -68 -78t-101 -27q-73 0 -113 43.5t-40 122.5v315h67v-311q0 -56 27.5 -86t77.5 -30q54 0 93.5 39t56.5 107v281h67v-385q0 -18 6.5 -29.5zM140 629.5q23 29.5 67 29.5q21 0 37.5 -6.5
t38.5 -19.5q18 -10 29 -14.5t23 -4.5q19 0 28 11.5t14 37.5h46q-3 -43 -25.5 -72.5t-62.5 -29.5q-21 0 -38.5 7t-37.5 19q-18 10 -29 14.5t-23 4.5q-21 0 -30.5 -12t-15.5 -39h-46q2 45 25 74.5z" />
    <glyph glyph-name="v" unicode="v" horiz-adv-x="467" 
d="M174 13q-22 24 -40 84l-114 373h65l111 -369q11 -37 18 -47.5t19 -10.5q13 0 20 11t18 47l111 369h65l-113 -373q-18 -60 -40 -84t-60 -24t-60 24z" />
    <glyph glyph-name="w" unicode="w" horiz-adv-x="645" 
d="M25 470h61l93 -412q23 6 33 35l111 334l112 -334q5 -16 12.5 -24t19.5 -10l94 411h59l-107 -470h-29q-37 0 -59 16.5t-33 51.5l-69 216l-69 -216q-12 -37 -33 -52.5t-59 -15.5h-29z" />
    <glyph glyph-name="wacute" unicode="&#x1e83;" horiz-adv-x="645" 
d="M25 470h61l93 -412q23 6 33 35l111 334l112 -334q5 -16 12.5 -24t19.5 -10l94 411h59l-107 -470h-29q-37 0 -59 16.5t-33 51.5l-69 216l-69 -216q-12 -37 -33 -52.5t-59 -15.5h-29zM375 693h74l-99 -145h-55z" />
    <glyph glyph-name="wcircumflex" unicode="&#x175;" horiz-adv-x="645" 
d="M25 470h61l93 -412q23 6 33 35l111 334l112 -334q5 -16 12.5 -24t19.5 -10l94 411h59l-107 -470h-29q-37 0 -59 16.5t-33 51.5l-69 216l-69 -216q-12 -37 -33 -52.5t-59 -15.5h-29zM240 613.5q37 43.5 58 84.5h49q22 -41 58.5 -84.5t66.5 -65.5h-65q-24 19 -50 48.5
t-34 47.5q-9 -19 -35 -48t-50 -48h-65q30 22 67 65.5z" />
    <glyph glyph-name="wdieresis" unicode="&#x1e85;" horiz-adv-x="645" 
d="M25 470h61l93 -412q23 6 33 35l111 334l112 -334q5 -16 12.5 -24t19.5 -10l94 411h59l-107 -470h-29q-37 0 -59 16.5t-33 51.5l-69 216l-69 -216q-12 -37 -33 -52.5t-59 -15.5h-29zM212.5 559.5q-12.5 12.5 -12.5 29.5t12.5 29.5t29.5 12.5t29 -12.5t12 -29.5t-12 -29.5
t-29 -12.5t-29.5 12.5zM375 559.5q-12 12.5 -12 29.5t12 29.5t30 12.5q17 0 29.5 -12.5t12.5 -29.5t-12.5 -29.5t-29.5 -12.5q-18 0 -30 12.5z" />
    <glyph glyph-name="wgrave" unicode="&#x1e81;" horiz-adv-x="645" 
d="M25 470h61l93 -412q23 6 33 35l111 334l112 -334q5 -16 12.5 -24t19.5 -10l94 411h59l-107 -470h-29q-37 0 -59 16.5t-33 51.5l-69 216l-69 -216q-12 -37 -33 -52.5t-59 -15.5h-29zM194 693h74l81 -145h-56z" />
    <glyph glyph-name="x" unicode="x" horiz-adv-x="440" 
d="M351 0l-132 192l-129 -192h-70l163 244l-155 226h69l126 -183l124 183h70l-158 -236l161 -234h-69z" />
    <glyph glyph-name="y" unicode="y" horiz-adv-x="537" 
d="M470 470v-532q0 -83 -44 -123.5t-133 -40.5h-121v53h121q110 0 110 112v141q-49 -91 -162 -91q-75 0 -117.5 44.5t-42.5 121.5v229q0 18 -6.5 29.5t-24.5 26.5l45 40q30 -17 41.5 -38.5t11.5 -59.5v-222q0 -56 28.5 -86.5t80.5 -30.5q59 0 100 40.5t46 102.5v284h67z" />
    <glyph glyph-name="yacute" unicode="&#xfd;" horiz-adv-x="537" 
d="M470 470v-532q0 -83 -44 -123.5t-133 -40.5h-121v53h121q110 0 110 112v141q-49 -91 -162 -91q-75 0 -117.5 44.5t-42.5 121.5v229q0 18 -6.5 29.5t-24.5 26.5l45 40q30 -17 41.5 -38.5t11.5 -59.5v-222q0 -56 28.5 -86.5t80.5 -30.5q59 0 100 40.5t46 102.5v284h67z
M326 693h74l-99 -145h-55z" />
    <glyph glyph-name="ycircumflex" unicode="&#x177;" horiz-adv-x="537" 
d="M470 470v-532q0 -83 -44 -123.5t-133 -40.5h-121v53h121q110 0 110 112v141q-49 -91 -162 -91q-75 0 -117.5 44.5t-42.5 121.5v229q0 18 -6.5 29.5t-24.5 26.5l45 40q30 -17 41.5 -38.5t11.5 -59.5v-222q0 -56 28.5 -86.5t80.5 -30.5q59 0 100 40.5t46 102.5v284h67z
M191 613.5q37 43.5 58 84.5h49q22 -41 58.5 -84.5t66.5 -65.5h-65q-24 19 -50 48.5t-34 47.5q-9 -19 -35 -48t-50 -48h-65q30 22 67 65.5z" />
    <glyph glyph-name="ydieresis" unicode="&#xff;" horiz-adv-x="537" 
d="M470 470v-532q0 -83 -44 -123.5t-133 -40.5h-121v53h121q110 0 110 112v141q-49 -91 -162 -91q-75 0 -117.5 44.5t-42.5 121.5v229q0 18 -6.5 29.5t-24.5 26.5l45 40q30 -17 41.5 -38.5t11.5 -59.5v-222q0 -56 28.5 -86.5t80.5 -30.5q59 0 100 40.5t46 102.5v284h67z
M163.5 559.5q-12.5 12.5 -12.5 29.5t12.5 29.5t29.5 12.5t29 -12.5t12 -29.5t-12 -29.5t-29 -12.5t-29.5 12.5zM326 559.5q-12 12.5 -12 29.5t12 29.5t30 12.5q17 0 29.5 -12.5t12.5 -29.5t-12.5 -29.5t-29.5 -12.5q-18 0 -30 12.5z" />
    <glyph glyph-name="uni1E8F" unicode="&#x1e8f;" horiz-adv-x="537" 
d="M470 470v-532q0 -83 -44 -123.5t-133 -40.5h-121v53h121q110 0 110 112v141q-49 -91 -162 -91q-75 0 -117.5 44.5t-42.5 121.5v229q0 18 -6.5 29.5t-24.5 26.5l45 40q30 -17 41.5 -38.5t11.5 -59.5v-222q0 -56 28.5 -86.5t80.5 -30.5q59 0 100 40.5t46 102.5v284h67z
M241 561q-14 14 -14 34q0 19 14 33t33 14t33 -14t14 -33q0 -20 -14 -34t-33 -14t-33 14z" />
    <glyph glyph-name="uni1EF5" unicode="&#x1ef5;" horiz-adv-x="537" 
d="M470 470v-532q0 -83 -44 -123.5t-133 -40.5h-121v53h121q110 0 110 112v141q-49 -91 -162 -91q-75 0 -117.5 44.5t-42.5 121.5v229q0 18 -6.5 29.5t-24.5 26.5l45 40q30 -17 41.5 -38.5t11.5 -59.5v-222q0 -56 28.5 -86.5t80.5 -30.5q59 0 100 40.5t46 102.5v284h67z
M248.5 -373.5q-13.5 13.5 -13.5 33.5q0 19 13.5 33t33.5 14q19 0 33 -14t14 -33q0 -20 -14 -33.5t-33 -13.5q-20 0 -33.5 13.5z" />
    <glyph glyph-name="ygrave" unicode="&#x1ef3;" horiz-adv-x="537" 
d="M470 470v-532q0 -83 -44 -123.5t-133 -40.5h-121v53h121q110 0 110 112v141q-49 -91 -162 -91q-75 0 -117.5 44.5t-42.5 121.5v229q0 18 -6.5 29.5t-24.5 26.5l45 40q30 -17 41.5 -38.5t11.5 -59.5v-222q0 -56 28.5 -86.5t80.5 -30.5q59 0 100 40.5t46 102.5v284h67z
M145 693h74l81 -145h-56z" />
    <glyph glyph-name="uni1EF7" unicode="&#x1ef7;" horiz-adv-x="537" 
d="M470 470v-532q0 -83 -44 -123.5t-133 -40.5h-121v53h121q110 0 110 112v141q-49 -91 -162 -91q-75 0 -117.5 44.5t-42.5 121.5v229q0 18 -6.5 29.5t-24.5 26.5l45 40q30 -17 41.5 -38.5t11.5 -59.5v-222q0 -56 28.5 -86.5t80.5 -30.5q59 0 100 40.5t46 102.5v284h67z
M354.5 611q-20.5 -18 -57.5 -25v-38h-53v65q41 5 58 15.5t17 29.5q0 21 -12 30t-35 9t-50 -9l-12 40q31 14 68 14q44 0 70.5 -20t26.5 -59q0 -34 -20.5 -52z" />
    <glyph glyph-name="uni1EF9" unicode="&#x1ef9;" horiz-adv-x="537" 
d="M470 470v-532q0 -83 -44 -123.5t-133 -40.5h-121v53h121q110 0 110 112v141q-49 -91 -162 -91q-75 0 -117.5 44.5t-42.5 121.5v229q0 18 -6.5 29.5t-24.5 26.5l45 40q30 -17 41.5 -38.5t11.5 -59.5v-222q0 -56 28.5 -86.5t80.5 -30.5q59 0 100 40.5t46 102.5v284h67z
M145 629.5q23 29.5 67 29.5q21 0 37.5 -6.5t38.5 -19.5q18 -10 29 -14.5t23 -4.5q19 0 28 11.5t14 37.5h46q-3 -43 -25.5 -72.5t-62.5 -29.5q-21 0 -38.5 7t-37.5 19q-18 10 -29 14.5t-23 4.5q-21 0 -30.5 -12t-15.5 -39h-46q2 45 25 74.5z" />
    <glyph glyph-name="z" unicode="z" horiz-adv-x="458" 
d="M423 53v-53h-299q-84 0 -84 64v29l295 324h-285v53h364v-51l-313 -342q3 -24 35 -24h287z" />
    <glyph glyph-name="zacute" unicode="&#x17a;" horiz-adv-x="458" 
d="M423 53v-53h-299q-84 0 -84 64v29l295 324h-285v53h364v-51l-313 -342q3 -24 35 -24h287zM287 693h74l-99 -145h-55z" />
    <glyph glyph-name="zcaron" unicode="&#x17e;" horiz-adv-x="458" 
d="M423 53v-53h-299q-84 0 -84 64v29l295 324h-285v53h364v-51l-313 -342q3 -24 35 -24h287zM152 631.5q-37 43.5 -67 66.5h65q24 -19 50 -48.5t35 -48.5q8 19 34 48.5t50 48.5h65q-30 -23 -66.5 -66.5t-58.5 -83.5h-49q-21 40 -58 83.5z" />
    <glyph glyph-name="zdotaccent" unicode="&#x17c;" horiz-adv-x="458" 
d="M423 53v-53h-299q-84 0 -84 64v29l295 324h-285v53h364v-51l-313 -342q3 -24 35 -24h287zM202 561q-14 14 -14 34q0 19 14 33t33 14t33 -14t14 -33q0 -20 -14 -34t-33 -14t-33 14z" />
    <glyph glyph-name="uni1E93" unicode="&#x1e93;" horiz-adv-x="458" 
d="M423 53v-53h-299q-84 0 -84 64v29l295 324h-285v53h364v-51l-313 -342q3 -24 35 -24h287zM201.5 -148.5q-13.5 13.5 -13.5 33.5q0 19 13.5 33t33.5 14q19 0 33 -14t14 -33q0 -20 -14 -33.5t-33 -13.5q-20 0 -33.5 13.5z" />
    <glyph glyph-name="ordfeminine" unicode="&#xaa;" horiz-adv-x="432" 
d="M365 378q5 -9 20 -21l-36 -32q-20 11 -30 24.5t-12 32.5q-20 -27 -53.5 -42t-75.5 -15q-59 0 -91 27.5t-32 78.5q0 98 133 111l61 6q27 2 40 7.5t17 16.5v9q0 41 -25 62t-73 21q-34 0 -58 -11.5t-41 -35.5l-36 29q38 58 136 58q74 0 112.5 -31.5t38.5 -91.5v-180
q0 -14 5 -23zM273 394q33 28 33 72v59q-16 -12 -56 -16l-58 -5q-46 -4 -65 -22.5t-19 -50.5q0 -65 80 -65q52 0 85 28z" />
    <glyph glyph-name="ordmasculine" unicode="&#xba;" horiz-adv-x="425" 
d="M100 361.5q-40 36.5 -40 102.5v101q0 66 40 102.5t113 36.5q72 0 112 -36.5t40 -102.5v-101q0 -66 -40 -102.5t-112 -36.5q-73 0 -113 36.5zM285.5 393q25.5 25 25.5 71v101q0 46 -25.5 71t-72.5 25q-48 0 -73.5 -24.5t-25.5 -71.5v-101q0 -47 25.5 -71.5t73.5 -24.5
q47 0 72.5 25z" />
    <glyph glyph-name="uni207F" unicode="&#x207f;" horiz-adv-x="492" 
d="M382.5 668q34.5 -37 34.5 -101v-283h-59v272q0 49 -22.5 75.5t-63.5 26.5q-46 0 -80.5 -33.5t-49.5 -93.5v-247h-59v333q0 18 -6 28.5t-22 22.5l40 37q27 -16 37 -35.5t10 -54.5q22 44 59 67t86 23q61 0 95.5 -37z" />
    <glyph glyph-name="uni0394" unicode="&#x394;" horiz-adv-x="657" 
d="M630 0h-603l267 700h69zM118 60h420l-210 556z" />
    <glyph glyph-name="uni0394" unicode="&#x3b4;" horiz-adv-x="657" 
d="M630 0h-603l267 700h69zM118 60h420l-210 556z" />
    <glyph glyph-name="uni03A9" unicode="&#x3a9;" horiz-adv-x="678" 
d="M631 58v-58h-224v62q68 17 105 65.5t37 121.5v199q0 96 -56 150.5t-154 54.5q-99 0 -155 -54.5t-56 -150.5v-199q0 -73 37 -121.5t105 -65.5v-62h-223v58h115q-106 61 -106 210v180q0 128 72 195.5t211 67.5q138 0 210 -67.5t72 -195.5v-180q0 -149 -106 -210h116z" />
    <glyph glyph-name="uni03A9" unicode="&#x3c9;" horiz-adv-x="678" 
d="M631 58v-58h-224v62q68 17 105 65.5t37 121.5v199q0 96 -56 150.5t-154 54.5q-99 0 -155 -54.5t-56 -150.5v-199q0 -73 37 -121.5t105 -65.5v-62h-223v58h115q-106 61 -106 210v180q0 128 72 195.5t211 67.5q138 0 210 -67.5t72 -195.5v-180q0 -149 -106 -210h116z" />
    <glyph glyph-name="uni03BC" unicode="&#x3bc;" horiz-adv-x="563" 
d="M482.5 56.5q6.5 -11.5 25.5 -27.5l-45 -39q-30 17 -42 38.5t-12 59.5v5q-24 -50 -64.5 -77t-93.5 -27q-59 0 -97 47v-261h-67v695h67v-310q0 -55 27.5 -86t77.5 -31q54 0 93.5 39.5t56.5 107.5v281h67v-385q0 -18 6.5 -29.5z" />
    <glyph glyph-name="pi" unicode="&#x3c0;" horiz-adv-x="654" 
d="M489 414v-299q0 -42 16.5 -56.5t64.5 -14.5l-15 -55q-51 0 -79.5 11.5t-41 37t-12.5 71.5v305h-225v-414h-67v414h-115v56h598v-56h-124z" />
    <glyph glyph-name="uni0E01" unicode="&#xe01;" horiz-adv-x="596" 
d="M73 241q0 119 91 158v4l-109 108v56h232q116 0 172.5 -60t56.5 -182v-325h-67v325q0 93 -42 140.5t-124 47.5l-166 -3l99 -97v-39q-40 -17 -58 -48.5t-18 -84.5v-241h-67v241z" />
    <glyph glyph-name="uni0E02" unicode="&#xe02;" horiz-adv-x="493" 
d="M411 560v-414q0 -77 -42 -116.5t-124 -39.5q-163 0 -163 166q0 38 9.5 69.5t38.5 93.5l15 33q-18 -10 -37 -10q-33 0 -53 26t-20 69q0 56 30 93t75 37q80 0 80 -113q0 -36 -8 -69t-28 -78t-27.5 -77t-7.5 -67q0 -61 23 -90t73 -29q48 0 73.5 26.5t25.5 75.5v414h67z
M150.5 407q16.5 27 16.5 65q0 27 -9 41.5t-25 14.5q-23 0 -39.5 -27t-16.5 -66q0 -26 9 -40.5t25 -14.5q23 0 39.5 27z" />
    <glyph glyph-name="uni0E03" unicode="&#xe03;" horiz-adv-x="519" 
d="M437 560v-417q0 -73 -44 -113t-124 -40t-122.5 40t-42.5 114q0 43 14.5 76t62.5 98q31 43 41 64t10 43v13q0 22 -12.5 41.5t-35.5 33.5q7 -17 7 -40q0 -54 -27.5 -89.5t-68.5 -35.5q-33 0 -53 25t-20 66q0 54 31 91t77 37q56 0 105 -61v54h28q17 -72 17 -124
q0 -39 -10 -67.5t-38 -71.5q-38 -60 -49.5 -87.5t-11.5 -63.5q0 -102 97 -102q50 0 76 25t26 74v417h67zM136.5 410q16.5 26 16.5 63q0 27 -9 42t-26 15q-23 0 -39 -27t-16 -64q0 -26 9 -40.5t25 -14.5q23 0 39.5 26z" />
    <glyph glyph-name="uni0E04" unicode="&#xe04;" horiz-adv-x="642" 
d="M497 520.5q63 -46.5 63 -129.5v-391h-66v391q0 58 -45.5 90t-127.5 32t-127.5 -32t-45.5 -90v-133q34 42 81.5 67t97.5 25q46 0 73.5 -19t27.5 -51q0 -36 -35 -59.5t-89 -23.5q-44 0 -71.5 17.5t-29.5 46.5q-29 -26 -42 -58t-13 -76v-127h-66v391q0 83 63 129.5t176 46.5
t176 -46.5zM263.5 302.5q-26.5 -15.5 -26.5 -36.5q0 -17 18.5 -27.5t49.5 -10.5q37 0 62 14.5t25 36.5q0 17 -18 28t-47 11q-37 0 -63.5 -15.5z" />
    <glyph glyph-name="uni0E05" unicode="&#xe05;" horiz-adv-x="648" 
d="M519.5 513q46.5 -42 46.5 -100v-413h-66v406q0 40 -23.5 70t-64.5 43l-89 -90l-85 90q-44 -12 -67 -41t-23 -72v-148q34 42 81.5 67t96.5 25q47 0 75 -19t28 -51q0 -36 -35 -59.5t-89 -23.5q-44 0 -72 17.5t-30 45.5q-29 -25 -42 -56.5t-13 -76.5v-127h-66v413
q0 59 45.5 100.5t124.5 53.5l71 -84l73 84q77 -12 123.5 -54zM265 302.5q-27 -15.5 -27 -36.5q0 -17 18 -27.5t49 -10.5q37 0 62.5 14.5t25.5 36.5q0 17 -18 28t-47 11q-36 0 -63 -15.5z" />
    <glyph glyph-name="uni0E06" unicode="&#xe06;" horiz-adv-x="637" 
d="M555 560v-403q0 -82 -39 -124.5t-114 -42.5q-49 0 -92.5 23.5t-74.5 65.5q-1 -42 -21 -65.5t-57 -23.5q-28 0 -52 20t-38.5 54t-14.5 73q0 46 20.5 72.5t56.5 26.5q17 0 35 -8q0 26 10.5 49t35.5 51q25 29 36 52t11 48v10q0 20 -11 39.5t-31 33.5q5 -18 5 -36
q0 -55 -27.5 -91t-68.5 -36q-32 0 -52 24t-20 63q0 57 30 94.5t76 37.5q57 0 106 -61v54h28q10 -41 14 -66.5t4 -49.5q0 -37 -11 -67t-39 -68q-17 -24 -23 -42t-6 -49v-23q0 -32 25.5 -67.5t63 -59.5t71.5 -24q47 0 72 29t25 84v403h67zM165.5 410q16.5 26 16.5 67
q0 23 -9 38t-23 15q-25 0 -41.5 -27t-16.5 -68q0 -23 9 -37t23 -14q25 0 41.5 26zM194 84q0 47 -19 80t-46 33q-17 0 -26 -16t-9 -44q0 -43 19 -76t43 -33q38 0 38 56z" />
    <glyph glyph-name="uni0E07" unicode="&#xe07;" horiz-adv-x="469" 
d="M366 542.5q21 -24.5 21 -67.5v-341q0 -68 -35 -101t-106 -33h-62q-40 131 -77.5 220.5t-81.5 158.5l52 29q43 -60 78 -141t77 -217h13q77 0 77 84v215q-22 -15 -45 -15q-32 0 -52 27t-20 71q0 58 30 96.5t75 38.5q35 0 56 -24.5zM320 401.5q17 29.5 17 69.5q0 28 -9 43
t-25 15q-23 0 -39.5 -28.5t-16.5 -68.5q0 -28 9 -44t25 -16q22 0 39 29.5z" />
    <glyph glyph-name="uni0E08" unicode="&#xe08;" horiz-adv-x="535" 
d="M403.5 522.5q59.5 -44.5 59.5 -126.5v-268q0 -65 -34 -96.5t-105 -31.5h-75q-5 133 -8 167q-19 -13 -42 -13q-26 0 -48 17.5t-35 47t-13 63.5q0 41 19.5 64.5t53.5 23.5q40 0 69.5 -33.5t42.5 -95.5q16 -67 20 -191h14q76 0 76 78v268q0 57 -43 87t-124 30
q-116 0 -182 -67l-37 41q75 80 222 80q110 0 169.5 -44.5zM224.5 204q8.5 14 8.5 39q0 38 -16.5 64.5t-39.5 26.5q-16 0 -25 -13.5t-9 -37.5q0 -37 17.5 -65t40.5 -28q15 0 23.5 14z" />
    <glyph glyph-name="uni0E09" unicode="&#xe09;" horiz-adv-x="635" 
d="M581 202q24 -35 24 -89q0 -55 -24 -89t-63 -34q-34 0 -57 27.5t-28 72.5q-69 -100 -158 -100q-62 0 -95 40.5t-33 116.5v17q-21 -19 -46 -19q-31 0 -51 27t-20 70q0 56 30 93.5t75 37.5q35 0 56 -24.5t21 -67.5v-127q0 -53 20.5 -81.5t59.5 -28.5q28 0 59.5 19.5
t57.5 52.5t39 71q5 17 5 34v175q0 56 -43.5 86.5t-125.5 30.5q-117 0 -181 -67l-37 41q75 80 222 80q110 0 170 -44.5t60 -126.5v-159h2q37 0 61 -35zM146.5 212q16.5 28 16.5 66q0 26 -9 41t-25 15q-23 0 -39.5 -27.5t-16.5 -65.5q0 -27 9 -42t25 -15q23 0 39.5 28z
M550.5 51q12.5 23 12.5 61t-12.5 62.5t-32.5 24.5t-32 -24t-12 -62t12 -61.5t32 -23.5t32.5 23z" />
    <glyph glyph-name="uni0E0A" unicode="&#xe0a;" horiz-adv-x="499" 
d="M412.5 374.5q10.5 -24.5 10.5 -58.5v-170q0 -76 -42.5 -116t-122.5 -40q-84 0 -130.5 41.5t-46.5 117.5q0 26 4 44t16 45t41 81q13 27 16 34q-19 -11 -38 -11q-33 0 -53 26t-20 69q0 56 30 93t76 37q79 0 79 -113q0 -74 -36 -146q-27 -53 -37.5 -87t-10.5 -65
q0 -53 28.5 -82.5t80.5 -29.5q48 0 73.5 26.5t25.5 75.5v164q0 37 -6.5 55t-27.5 40l-27 28v26q31 21 45.5 37t20 36.5t5.5 57.5h66q0 -54 -16.5 -83.5t-64.5 -57.5l26 -26q25 -24 35.5 -48.5zM162.5 407q16.5 27 16.5 65q0 27 -9 41.5t-25 14.5q-23 0 -39.5 -27t-16.5 -66
q0 -26 9 -40.5t25 -14.5q23 0 39.5 27z" />
    <glyph glyph-name="uni0E0B" unicode="&#xe0b;" horiz-adv-x="518" 
d="M429 379.5q11 -23.5 11 -63.5v-173q0 -73 -44.5 -113t-124.5 -40t-123.5 40t-43.5 113q0 44 16.5 81.5t60.5 93.5q27 35 39 59.5t12 47.5v13q0 43 -47 74q6 -17 6 -37q0 -55 -27.5 -91t-68.5 -36q-32 0 -52.5 24t-20.5 63q0 57 30.5 94.5t76.5 37.5q56 0 106 -60v53h28
q17 -71 17 -121q0 -40 -10.5 -70.5t-38.5 -71.5q-36 -50 -48 -82.5t-12 -71.5q0 -49 25.5 -74t74.5 -25t75.5 25.5t26.5 73.5v167q0 40 -6.5 58t-24.5 37l-28 28v26q31 21 45.5 37t20 36.5t5.5 57.5h66q0 -55 -17 -84t-64 -57l27 -26q21 -20 32 -43.5zM136.5 410.5
q16.5 26.5 16.5 66.5q0 23 -9 38t-23 15q-25 0 -41.5 -27t-16.5 -68q0 -22 9 -36.5t23 -14.5q25 0 41.5 26.5z" />
    <glyph glyph-name="uni0E0C" unicode="&#xe0c;" horiz-adv-x="896" 
d="M814 560v-409q0 -80 -36.5 -120.5t-107.5 -40.5q-43 0 -80 20t-63 56q-4 -37 -24 -56.5t-52 -19.5q-28 0 -52 19t-38 51t-14 69q0 45 20.5 70.5t56.5 25.5q13 0 28 -5v105q0 96 -40 142t-123 46l-130 -2l-43 -1l99 -97v-39q-41 -16 -59.5 -48t-18.5 -85v-33q22 15 43 15
q33 0 53.5 -25.5t20.5 -66.5q0 -62 -29 -101.5t-75 -39.5q-37 0 -57.5 24.5t-20.5 67.5v159q0 118 90 158v4l-107 108v56h234q116 0 173 -59.5t57 -182.5v-134q0 -32 22 -66.5t55 -57.5t63 -23q43 0 65.5 27t22.5 80v409h67zM487 83q0 43 -18.5 73.5t-44.5 30.5
q-16 0 -25.5 -15.5t-9.5 -42.5q0 -41 18 -71t43 -30q37 0 37 55zM138.5 155.5q-16.5 -29.5 -16.5 -75.5q0 -22 9 -37t23 -15q25 0 41.5 29t16.5 74q0 24 -9 39t-23 15q-25 0 -41.5 -29.5z" />
    <glyph glyph-name="uni0E0D" unicode="&#xe0d;" horiz-adv-x="880" 
d="M800 560v-317q0 -120 -64.5 -181.5t-191.5 -61.5h-92v325q0 96 -40.5 142t-123.5 46l-127 -2l-45 -1l99 -97v-39q-41 -16 -59.5 -48t-18.5 -85v-32q22 15 43 15q33 0 53.5 -25.5t20.5 -67.5q0 -62 -29 -101.5t-75 -39.5q-36 0 -57 24.5t-21 67.5v159q0 118 90 158v4
l-107 108v56h233q117 0 174 -60t57 -182v-271h25q98 0 143.5 45.5t45.5 143.5v317h67zM138.5 156.5q-16.5 -29.5 -16.5 -75.5q0 -23 9 -37.5t23 -14.5q25 0 41.5 29t16.5 73q0 24 -9 39.5t-23 15.5q-25 0 -41.5 -29.5zM704 -114q22 29 28 69h60q-14 -77 -71 -117.5
t-151 -40.5q-53 0 -85 19.5t-32 52.5q0 28 29.5 47t72.5 19q44 0 73.5 -19t29.5 -47q0 -12 -8 -25q32 13 54 42zM600 -155q19 10 19 24t-19 23.5t-45 9.5t-44.5 -9.5t-18.5 -23.5t19 -24t44 -10q26 0 45 10z" />
    <glyph glyph-name="yoYingthai.less" horiz-adv-x="880" 
d="M800 560v-317q0 -120 -64.5 -181.5t-191.5 -61.5h-92v325q0 96 -40.5 142t-123.5 46l-127 -2l-45 -1l99 -97v-39q-41 -16 -59.5 -48t-18.5 -85v-32q22 15 43 15q33 0 53.5 -25.5t20.5 -67.5q0 -62 -29 -101.5t-75 -39.5q-36 0 -57 24.5t-21 67.5v159q0 118 90 158v4
l-107 108v56h233q117 0 174 -60t57 -182v-271h25q98 0 143.5 45.5t45.5 143.5v317h67zM138.5 156.5q-16.5 -29.5 -16.5 -75.5q0 -23 9 -37.5t23 -14.5q25 0 41.5 29t16.5 73q0 24 -9 39.5t-23 15.5q-25 0 -41.5 -29.5z" />
    <glyph glyph-name="uni0E0E" unicode="&#xe0e;" horiz-adv-x="631" 
d="M490.5 508.5q60.5 -58.5 60.5 -176.5v-589h-65q-63 58 -122 88q-23 -34 -58 -52.5t-79 -18.5q-50 0 -80.5 17.5t-30.5 53.5q0 37 33 55t78 18q57 0 118 -23q10 25 13 61h44q-3 -42 -20 -79q51 -26 102 -68v537q0 92 -43.5 136.5t-133.5 44.5l-126 -2l-59 -1l97 -96v-332
q0 -43 -21 -67.5t-58 -24.5q-45 0 -74 39.5t-29 101.5q0 42 20 67.5t53 25.5q23 0 44 -16v206l-95 97v56h248q123 0 183.5 -58.5zM160 43.5q9 14.5 9 37.5q0 45 -16.5 75t-41.5 30q-14 0 -23 -15.5t-9 -39.5q0 -44 16.5 -73t41.5 -29q14 0 23 14.5zM328 -152q-52 22 -101 22
q-34 0 -51.5 -10.5t-17.5 -28.5q0 -17 17.5 -27t51.5 -10q65 0 101 54z" />
    <glyph glyph-name="doChadathai.short" horiz-adv-x="631" 
d="M490.5 508.5q60.5 -58.5 60.5 -176.5v-532h-65q-70 55 -123 82q-23 -34 -59 -52t-82 -18q-50 0 -78.5 19t-28.5 52q0 34 31 53.5t84 19.5t113 -24q11 29 14 62h44q-4 -42 -20 -80q46 -22 103 -65v483q0 94 -45 137.5t-141 43.5l-176 -3l97 -96v-327q0 -43 -21 -67.5
t-56 -24.5q-45 0 -75 39t-30 97q0 45 19.5 71.5t51.5 26.5q25 0 46 -16v201l-95 97v56h248q123 0 183.5 -58.5zM160.5 48.5q8.5 14.5 8.5 42.5q0 40 -16.5 70t-39.5 30q-16 0 -25 -15.5t-9 -43.5q0 -41 16.5 -69.5t39.5 -28.5q17 0 25.5 14.5zM327 -100q-53 22 -101 22
q-33 0 -51 -10t-18 -28t17 -28t47 -10q69 0 106 54z" />
    <glyph glyph-name="uni0E0F" unicode="&#xe0f;" horiz-adv-x="631" 
d="M407 -154l-76 -103q-31 41 -63 69q-22 -25 -52.5 -38.5t-66.5 -13.5q-46 0 -73.5 19t-27.5 54q0 36 30 53.5t71 17.5q57 0 109 -36q17 30 19 76h44q-5 -60 -31 -101q22 -20 40 -44l77 106l77 -103v530q0 92 -43.5 136.5t-133.5 44.5l-125 -2l-59 -1l96 -96v-332
q0 -43 -21 -67.5t-58 -24.5q-45 0 -74 39.5t-29 101.5q0 42 20 67.5t53 25.5q12 0 24 -6t20 -17v212l-95 98v56h248q123 0 183.5 -58.5t60.5 -176.5v-589h-67zM160 43.5q9 14.5 9 37.5q0 45 -16.5 75t-41.5 30q-14 0 -23 -15.5t-9 -39.5q0 -44 16.5 -73t41.5 -29
q14 0 23 14.5zM237 -163q-45 33 -88 33q-29 0 -45 -10t-16 -27t15.5 -27.5t45.5 -10.5q54 0 88 42z" />
    <glyph glyph-name="toPatakthai.short" horiz-adv-x="631" 
d="M490.5 508.5q60.5 -58.5 60.5 -176.5v-542h-67l-69 83l-62 -83q-29 40 -63 69q-45 -51 -115 -51q-47 0 -73 19.5t-26 53.5q0 32 27 51t72 19q57 0 106 -36q15 31 18 66h42q-8 -54 -29 -90q18 -16 40 -45l62 83l70 -84v487q0 89 -41 133.5t-126 47.5l-195 -4l97 -95v-327
q0 -43 -21 -67.5t-58 -24.5q-45 0 -74 39.5t-29 101.5q0 42 20 67.5t53 25.5q22 0 44 -15v200l-95 97v56h248q123 0 183.5 -58.5zM160 48.5q9 14.5 9 37.5q0 46 -16.5 75.5t-41.5 29.5q-14 0 -23 -15.5t-9 -39.5q0 -44 16.5 -73t41.5 -29q14 0 23 14.5zM260 -116
q-40 33 -85 33q-28 0 -43.5 -9.5t-15.5 -26.5q0 -18 15.5 -28t43.5 -10q53 0 85 41z" />
    <glyph glyph-name="uni0E10" unicode="&#xe10;" horiz-adv-x="526" 
d="M75 408.5q-48 22.5 -48 56.5q0 47 58.5 74.5t152.5 27.5q57 0 118 -11.5t117 -32.5l-16 -52q-45 19 -110.5 32t-116.5 13q-58 0 -97.5 -12.5t-39.5 -33.5q0 -14 21 -23t77 -23l54 -14q77 -21 119 -41t60 -43.5t18 -56.5v-141q0 -65 -34.5 -96.5t-105.5 -31.5h-74
q-5 93 -8 118q-16 -13 -42 -13q-40 0 -67.5 34.5t-27.5 83.5q0 40 20 64t55 24q76 0 107 -119q8 -35 12.5 -66t6.5 -76h17q76 0 76 78v137q0 29 -33.5 51t-118.5 44q-102 26 -150 48.5zM204 155q9 14 9 37q0 34 -16.5 58t-39.5 24q-16 0 -24.5 -13t-8.5 -36q0 -34 16 -59
t39 -25q16 0 25 14zM434.5 -53.5q24.5 -16.5 24.5 -43.5v-156h-46l-85 50l-58 -50q-24 21 -60 46q-43 -46 -101 -46q-36 0 -56.5 16t-20.5 44q0 27 21.5 43t57.5 16q41 0 87 -30q12 22 14 62h36q-3 -42 -22 -79q24 -16 45 -34l56 50l89 -53v82q-19 -8 -46 -8q-36 0 -59 15
t-23 38q0 24 22.5 39t59.5 15q40 0 64.5 -16.5zM405.5 -108.5q15.5 7.5 15.5 17.5t-15.5 18t-35.5 8q-21 0 -35.5 -7.5t-14.5 -18.5t13.5 -18t34.5 -7q22 0 37.5 7.5zM182 -189q-39 26 -71 26q-22 0 -34 -8t-12 -22t12.5 -22.5t33.5 -8.5q37 0 71 35z" />
    <glyph glyph-name="thoThanthai.less" horiz-adv-x="526" 
d="M132.5 503.5q-39.5 -12.5 -39.5 -33.5q0 -14 21 -23t77 -23l54 -14q77 -21 119 -41t60 -43.5t18 -56.5v-141q0 -65 -34.5 -96.5t-105.5 -31.5h-74q-5 93 -8 118q-16 -13 -42 -13q-40 0 -67.5 34.5t-27.5 83.5q0 40 20 64t55 24q76 0 107 -119q8 -35 12.5 -66t6.5 -76h17
q76 0 76 78v137q0 29 -33.5 51t-118.5 44q-102 26 -150 48.5t-48 56.5q0 47 58.5 74.5t152.5 27.5q57 0 118 -11.5t117 -32.5l-16 -52q-45 19 -110.5 32t-116.5 13q-58 0 -97.5 -12.5zM204 155q9 14 9 37q0 34 -16.5 58t-39.5 24q-16 0 -24.5 -13t-8.5 -36q0 -34 16 -59
t39 -25q16 0 25 14z" />
    <glyph glyph-name="uni0E11" unicode="&#xe11;" horiz-adv-x="669" 
d="M587 412v-412h-67v412q0 49 -18 75t-53 26q-55 0 -111 -55t-97 -148q-14 -32 -18.5 -53t-4.5 -51v-206h-67v206q0 34 10.5 62t30.5 68q16 31 23.5 50t7.5 38v14q0 19 -11.5 38t-31.5 33q6 -18 6 -37q0 -53 -27.5 -88.5t-68.5 -35.5q-34 0 -53.5 24.5t-19.5 66.5
q0 54 30 91t74 37q59 0 109 -65v58h27q11 -41 15 -66t3 -49q69 122 184 122q128 0 128 -155zM130.5 410.5q16.5 26.5 16.5 62.5q0 26 -9 41.5t-26 15.5q-23 0 -39 -27t-16 -64q0 -27 9 -41t25 -14q23 0 39.5 26.5z" />
    <glyph glyph-name="uni0E12" unicode="&#xe12;" horiz-adv-x="937" 
d="M855 560v-409q0 -79 -35.5 -120t-103.5 -41q-87 0 -142 67q-5 -32 -24 -49.5t-48 -17.5t-53.5 18.5t-38.5 50.5t-14 70q0 44 21 69.5t57 25.5q11 0 21 -3v185q0 40 -23 70t-64 43l-88 -90l-86 90q-42 -13 -64.5 -42t-22.5 -71v-357q55 6 101 40.5t64 84.5q-11 -4 -24 -4
q-31 0 -49.5 23t-18.5 62q0 50 27 85.5t65 35.5q32 0 49 -25t17 -74q0 -72 -32.5 -133.5t-88 -98t-120.5 -36.5h-55v404q0 59 45 100.5t122 53.5l71 -84l73 84q76 -12 121.5 -54t45.5 -100v-222q0 -33 22 -67.5t56 -57t67 -22.5q40 0 61.5 27.5t21.5 79.5v409h67zM288 201
q22 0 38 26t16 63q0 26 -8.5 40.5t-24.5 14.5q-22 0 -37.5 -27t-15.5 -64q0 -53 32 -53zM526.5 42.5q9.5 14.5 9.5 41.5q0 41 -18 71.5t-43 30.5q-17 0 -26.5 -15t-9.5 -42q0 -41 18 -71t43 -30q17 0 26.5 14.5z" />
    <glyph glyph-name="uni0E13" unicode="&#xe13;" horiz-adv-x="917" 
d="M863 202.5q24 -34.5 24 -88.5q0 -56 -24 -90t-63 -34q-33 0 -56 26.5t-28 71.5q-67 -98 -148 -98q-65 0 -98 41.5t-33 122.5v171q0 97 -36.5 142.5t-115.5 45.5l-126 -2l-43 -1l99 -97v-39q-41 -16 -59.5 -48t-18.5 -85v-33q21 16 43 16q33 0 53.5 -25.5t20.5 -67.5
q0 -62 -29 -101.5t-75 -39.5q-36 0 -57 24.5t-21 67.5v159q0 118 90 158v4l-107 108v56h230q111 0 165 -60t54 -182v-171q0 -54 19.5 -82t56.5 -28q32 0 68 28.5t61 70.5t25 78v339h67v-323q38 0 62 -34.5zM832.5 51.5q12.5 23.5 12.5 62.5q0 38 -12.5 61.5t-32.5 23.5
q-19 0 -31.5 -23.5t-12.5 -61.5t12 -62t32 -24t32.5 23.5zM138.5 156.5q-16.5 -29.5 -16.5 -75.5q0 -23 9 -37.5t23 -14.5q25 0 41.5 29t16.5 73q0 24 -9 39.5t-23 15.5q-25 0 -41.5 -29.5z" />
    <glyph glyph-name="uni0E14" unicode="&#xe14;" horiz-adv-x="636" 
d="M491.5 520.5q62.5 -46.5 62.5 -129.5v-391h-65v391q0 58 -45 90t-126 32t-126 -32t-45 -90v-342q54 4 98 35q43 31 64 73q-10 -2 -17 -2q-32 0 -50.5 23.5t-18.5 63.5q0 35 13 65t34.5 48t47.5 18q34 0 52.5 -26.5t18.5 -74.5q0 -62 -28.5 -120.5t-77.5 -95.5
q-32 -25 -72 -40t-74 -15h-55v390q0 83 62.5 129.5t173.5 46.5t173.5 -46.5zM270 203.5q9 -14.5 25 -14.5q23 0 39.5 28t16.5 66q0 26 -9 41t-25 15q-23 0 -39.5 -28t-16.5 -67q0 -26 9 -40.5z" />
    <glyph glyph-name="uni0E15" unicode="&#xe15;" horiz-adv-x="642" 
d="M514.5 513q45.5 -42 45.5 -100v-413h-65v406q0 40 -23 70t-64 43l-88 -90l-86 90q-42 -13 -64.5 -42t-22.5 -71v-357q51 4 95.5 33.5t66.5 74.5q-10 -2 -17 -2q-32 0 -50.5 24t-18.5 64q0 54 26.5 92t67.5 38q34 0 53 -26.5t19 -75.5q0 -69 -33.5 -129.5t-91.5 -98.5
t-127 -43h-55v413q0 59 45 100.5t122 53.5l71 -84l73 84q76 -12 121.5 -54zM270 203.5q9 -14.5 25 -14.5q23 0 39.5 28t16.5 66q0 26 -9 41t-25 15q-23 0 -39.5 -28t-16.5 -67q0 -26 9 -40.5z" />
    <glyph glyph-name="uni0E16" unicode="&#xe16;" horiz-adv-x="604" 
d="M466 507q58 -60 58 -182v-325h-67v325q0 95 -41.5 141.5t-126.5 46.5l-130 -2l-43 -1l99 -97v-39q-41 -16 -59.5 -48t-18.5 -85v-32q22 15 45 15q33 0 52.5 -26.5t19.5 -71.5q0 -58 -30 -97t-75 -39q-35 0 -56 24.5t-21 67.5v159q0 118 90 158v4l-107 108v56h234
q119 0 177 -60zM138.5 156q-16.5 -30 -16.5 -70q0 -28 8.5 -42.5t25.5 -14.5q23 0 39.5 28.5t16.5 69.5q0 28 -9 43.5t-25 15.5q-23 0 -39.5 -30z" />
    <glyph glyph-name="uni0E17" unicode="&#xe17;" horiz-adv-x="654" 
d="M538.5 526q33.5 -41 33.5 -108v-418h-67v418q0 44 -17 69.5t-46 25.5q-56 0 -114.5 -73t-101.5 -194q-12 -33 -16 -52.5t-4 -42.5v-151h-67v351q-20 -17 -45 -17q-32 0 -51.5 27t-19.5 71q0 58 30 96.5t75 38.5q36 0 57 -25t21 -67v-169q53 136 111.5 198.5t132.5 62.5
q55 0 88.5 -41zM139 401.5q16 29.5 16 69.5q0 28 -9 43t-25 15q-23 0 -39.5 -29t-16.5 -69q0 -28 9.5 -43.5t25.5 -15.5q23 0 39 29.5z" />
    <glyph glyph-name="uni0E18" unicode="&#xe18;" horiz-adv-x="548" 
d="M138 19.5q-49 29.5 -49 84.5v204h67v-203q0 -28 33.5 -44.5t89.5 -16.5q57 0 90.5 16.5t33.5 44.5v152q0 16 -8.5 28t-45 29t-115.5 40q-78 22 -113 35t-51.5 28.5t-16.5 39.5q0 50 57.5 80t153.5 30q57 0 117.5 -11.5t116.5 -32.5l-16 -52q-43 18 -109 31t-119 13
q-59 0 -97 -15.5t-38 -37.5q0 -12 15.5 -20t63.5 -22q17 -4 57 -17q102 -32 148 -55t56.5 -40t10.5 -43v-161q0 -55 -49.5 -84.5t-141.5 -29.5t-141 29.5z" />
    <glyph glyph-name="uni0E19" unicode="&#xe19;" horiz-adv-x="645" 
d="M591 202q24 -35 24 -90q0 -54 -24.5 -88t-62.5 -34q-34 0 -57 27.5t-28 74.5q-37 -50 -81 -76t-92 -26q-66 0 -100 42t-34 122v196q-19 -17 -45 -17q-32 0 -51.5 27t-19.5 71q0 58 30.5 97t74.5 39q36 0 57 -25t21 -67v-321q0 -54 21.5 -82t62.5 -28q36 0 77 28t69 69
t28 76v343h67v-323h1q38 0 62 -35zM136 400.5q16 29.5 16 70.5q0 27 -8.5 42t-24.5 15q-23 0 -40 -29t-17 -69q0 -28 9.5 -43.5t25.5 -15.5q23 0 39 29.5zM560.5 52q12.5 24 12.5 62q0 37 -12.5 61t-32.5 24t-32.5 -24t-12.5 -61q0 -38 12.5 -62t32.5 -24t32.5 24z" />
    <glyph glyph-name="uni0E1A" unicode="&#xe1a;" horiz-adv-x="641" 
d="M559 560v-428q0 -68 -55.5 -105t-156.5 -37t-156 37t-55 105v215q-20 -14 -44 -14q-33 0 -52.5 26.5t-19.5 71.5q0 58 30.5 97t74.5 39q36 0 57 -25t21 -67v-342q0 -42 38 -65.5t106 -23.5t106.5 23.5t38.5 65.5v427h67zM136 400.5q16 29.5 16 70.5q0 27 -8.5 42
t-24.5 15q-23 0 -40 -29t-17 -69q0 -28 9.5 -43.5t25.5 -15.5q23 0 39 29.5z" />
    <glyph glyph-name="uni0E1B" unicode="&#xe1b;" horiz-adv-x="641" 
d="M559 816v-684q0 -68 -55.5 -105t-156.5 -37t-156 37t-55 105v215q-20 -14 -44 -14q-33 0 -52.5 26.5t-19.5 71.5q0 58 30.5 97t74.5 39q36 0 57 -25t21 -67v-342q0 -42 38 -65.5t106 -23.5t106.5 23.5t38.5 65.5v683h67zM136 400.5q16 29.5 16 70.5q0 27 -8.5 42
t-24.5 15q-23 0 -40 -29t-17 -69q0 -28 9.5 -43.5t25.5 -15.5q23 0 39 29.5z" />
    <glyph glyph-name="uni0E1C" unicode="&#xe1c;" horiz-adv-x="655" 
d="M570 560v-560h-63q-56 29 -98.5 71.5t-81.5 108.5q-40 -66 -83 -109t-98 -71h-64v413q0 70 28 112t75 42q35 0 55.5 -25.5t20.5 -70.5q0 -57 -29 -97t-70 -40q-5 0 -15 2v-276q52 28 99.5 85.5t79.5 130.5q32 -73 79.5 -130.5t99.5 -85.5v500h65zM145.5 500.5
q-16.5 -28.5 -16.5 -69.5q0 -28 9 -43.5t25 -15.5q22 0 39 29.5t17 69.5q0 28 -9 43t-25 15q-23 0 -39.5 -28.5z" />
    <glyph glyph-name="uni0E1D" unicode="&#xe1d;" horiz-adv-x="655" 
d="M570 815v-815h-63q-56 29 -98.5 71.5t-81.5 108.5q-40 -66 -83 -109t-98 -71h-64v413q0 70 28 112t75 42q35 0 55.5 -25.5t20.5 -70.5q0 -57 -29 -97t-70 -40q-5 0 -15 2v-276q52 28 99.5 85.5t79.5 130.5q32 -73 79.5 -130.5t99.5 -85.5v755h65zM145.5 500.5
q-16.5 -28.5 -16.5 -69.5q0 -28 9 -43.5t25 -15.5q22 0 39 29.5t17 69.5q0 28 -9 43t-25 15q-23 0 -39.5 -28.5z" />
    <glyph glyph-name="uni0E1E" unicode="&#xe1e;" horiz-adv-x="688" 
d="M603 560v-560h-77q-39 39 -86.5 135.5t-74.5 187.5q-25 -92 -70.5 -188.5t-83.5 -134.5h-76v335q-4 -1 -12 -1q-27 0 -50 18.5t-36.5 50.5t-13.5 69q0 46 20 70.5t57 24.5q44 0 73 -40.5t29 -103.5v-350q37 50 80.5 157t82.5 243q29 -113 79 -230t92 -172v489h67z
M82.5 403q17.5 -31 40.5 -31q32 0 32 54q0 42 -17.5 72.5t-40.5 30.5q-32 0 -32 -53q0 -42 17.5 -73z" />
    <glyph glyph-name="uni0E1F" unicode="&#xe1f;" horiz-adv-x="688" 
d="M603 815v-815h-77q-39 39 -86.5 135.5t-74.5 187.5q-25 -92 -70.5 -188.5t-83.5 -134.5h-76v335q-4 -1 -12 -1q-27 0 -50 18.5t-36.5 50.5t-13.5 69q0 46 20 70.5t57 24.5q44 0 73 -40.5t29 -103.5v-350q37 51 81 158.5t82 241.5q29 -113 79 -230t92 -172v744h67z
M82.5 403q17.5 -31 40.5 -31q32 0 32 54q0 42 -17.5 72.5t-40.5 30.5q-32 0 -32 -53q0 -42 17.5 -73z" />
    <glyph glyph-name="uni0E20" unicode="&#xe20;" horiz-adv-x="631" 
d="M490.5 508.5q60.5 -58.5 60.5 -176.5v-332h-67v332q0 92 -43.5 136.5t-133.5 44.5l-125 -2l-59 -1l96 -96v-332q0 -41 -22 -66.5t-57 -25.5q-44 0 -73.5 40.5t-29.5 100.5q0 44 19.5 68.5t53.5 24.5q24 0 44 -15v204l-95 98v56h248q123 0 183.5 -58.5zM169 81
q0 42 -17.5 73.5t-40.5 31.5q-32 0 -32 -55q0 -43 17 -72.5t41 -29.5q32 0 32 52z" />
    <glyph glyph-name="uni0E21" unicode="&#xe21;" horiz-adv-x="638" 
d="M556 560v-403q0 -81 -38.5 -124t-109.5 -43q-52 0 -96 23.5t-75 66.5v-6q-3 -40 -23 -62t-53 -22q-29 0 -53.5 20t-39 54.5t-14.5 74.5q0 44 20.5 70.5t55.5 26.5q18 0 36 -8v126q-17 -23 -44 -23q-31 0 -50.5 27.5t-19.5 71.5q0 58 30 97.5t74 39.5q35 0 56 -25t21 -68
v-279q0 -33 25.5 -68.5t64 -59t73.5 -23.5q44 0 68.5 29.5t24.5 83.5v403h67zM167.5 400q16.5 30 16.5 70q0 27 -9 42t-25 15q-23 0 -39.5 -28.5t-16.5 -69.5q0 -28 9 -43.5t25 -15.5q23 0 39.5 30zM197 85q0 46 -19.5 79t-45.5 33q-17 0 -26.5 -15t-9.5 -43q0 -45 19.5 -78
t45.5 -33q36 0 36 57z" />
    <glyph glyph-name="uni0E22" unicode="&#xe22;" horiz-adv-x="616" 
d="M531 560v-560h-302q-72 0 -117 40t-45 104q0 46 24.5 81t65.5 51q-45 17 -73.5 58.5t-28.5 89.5q0 64 40 103.5t105 39.5q42 0 78 -17t57.5 -46t21.5 -62q0 -31 -21 -50t-56 -19q-33 0 -64 18t-50.5 46.5t-20.5 59.5q-25 -23 -25 -68q0 -54 35 -91t86 -37h113v-52h-110
q-50 0 -81 -27.5t-31 -71.5t30.5 -70t81.5 -26h221v506h66zM192.5 520.5q-9.5 -8.5 -9.5 -23.5q0 -19 15 -40t37.5 -34.5t43.5 -13.5q17 0 27 9t10 24q0 18 -15.5 38.5t-38.5 34.5t-44 14q-16 0 -25.5 -8.5z" />
    <glyph glyph-name="uni0E23" unicode="&#xe23;" horiz-adv-x="502" 
d="M132.5 502q-39.5 -13 -39.5 -34q0 -17 28.5 -30t107.5 -38q75 -24 115.5 -43.5t57.5 -41t17 -52.5v-135q0 -65 -37.5 -101.5t-103.5 -36.5q-44 0 -82 17.5t-60.5 46.5t-22.5 63q0 32 21 51t56 19q33 0 64.5 -19t51 -50t19.5 -63q0 -6 -1 -9q28 19 28 86v123
q0 27 -30.5 48t-116.5 49q-88 29 -133 53.5t-45 60.5q0 28 27 51t75.5 36.5t109.5 13.5q56 0 116 -11.5t117 -32.5l-16 -52q-44 19 -109.5 31.5t-116.5 12.5q-58 0 -97.5 -13zM277 38.5q9 8.5 9 23.5q0 20 -14.5 41t-37 34.5t-43.5 13.5q-17 0 -27.5 -9t-10.5 -24
q0 -19 15.5 -39.5t39 -34.5t44.5 -14q16 0 25 8.5z" />
    <glyph glyph-name="uni0E24" unicode="&#xe24;" horiz-adv-x="604" 
d="M466 507q58 -60 58 -182v-575h-67v575q0 95 -41.5 141.5t-126.5 46.5l-130 -2l-43 -1l99 -97v-39q-41 -16 -59.5 -48t-18.5 -85v-32q22 15 43 15q33 0 53.5 -25.5t20.5 -67.5q0 -62 -29 -101.5t-75 -39.5q-36 0 -57 24.5t-21 67.5v159q0 118 90 158v4l-107 108v56h234
q119 0 177 -60zM138.5 156.5q-16.5 -29.5 -16.5 -75.5q0 -23 9 -37.5t23 -14.5q25 0 41.5 29t16.5 73q0 24 -9 39.5t-23 15.5q-25 0 -41.5 -29.5z" />
    <glyph glyph-name="uni0E24.short" horiz-adv-x="604" 
d="M466 507q58 -60 58 -182v-485h-67v485q0 95 -41.5 141.5t-126.5 46.5l-130 -2l-43 -1l99 -97v-39q-41 -16 -59.5 -48t-18.5 -85v-32q22 15 43 15q33 0 53.5 -25.5t20.5 -67.5q0 -62 -29 -101.5t-75 -39.5q-36 0 -57 24.5t-21 67.5v159q0 118 90 158v4l-107 108v56h234
q119 0 177 -60zM138.5 156.5q-16.5 -29.5 -16.5 -75.5q0 -23 9 -37.5t23 -14.5q25 0 41.5 29t16.5 73q0 24 -9 39.5t-23 15.5q-25 0 -41.5 -29.5z" />
    <glyph glyph-name="uni0E25" unicode="&#xe25;" horiz-adv-x="605" 
d="M462 521.5q61 -45.5 61 -128.5v-393h-65v298q-13 -7 -32 -11.5t-52 -8.5l-102 -12q-76 -9 -115 -41.5t-39 -85.5q0 -51 34 -79v6q0 40 39.5 68t94.5 28q42 0 67 -19t25 -51q0 -44 -43.5 -73t-109.5 -29q-77 0 -122.5 42t-45.5 113q0 75 48 117.5t146 53.5l107 12
q56 5 77 17.5t23 43.5v4q0 57 -44.5 88.5t-125.5 31.5q-131 0 -199 -82l-39 40q80 96 240 96q111 0 172 -45.5zM219 106.5q-30 -19.5 -30 -45.5q0 -17 13 -26t36 -9q39 0 70 20.5t31 45.5q0 16 -13.5 25t-36.5 9q-40 0 -70 -19.5z" />
    <glyph glyph-name="uni0E26" unicode="&#xe26;" horiz-adv-x="631" 
d="M490.5 508.5q60.5 -58.5 60.5 -176.5v-581h-67v581q0 92 -43.5 136.5t-133.5 44.5l-126 -2l-59 -1l97 -96v-332q0 -43 -21 -67.5t-58 -24.5q-45 0 -74 39.5t-29 101.5q0 42 20 67.5t53 25.5q22 0 44 -15v205l-95 97v56h248q123 0 183.5 -58.5zM160 43.5q9 14.5 9 37.5
q0 46 -16.5 75.5t-41.5 29.5q-14 0 -23 -15.5t-9 -39.5q0 -44 16.5 -73t41.5 -29q14 0 23 14.5z" />
    <glyph glyph-name="uni0E26.short" horiz-adv-x="631" 
d="M490.5 508.5q60.5 -58.5 60.5 -176.5v-492h-67v492q0 92 -43.5 136.5t-133.5 44.5l-126 -2l-59 -1l97 -96v-332q0 -43 -21 -67.5t-58 -24.5q-45 0 -74 39.5t-29 101.5q0 42 20 67.5t53 25.5q22 0 44 -15v205l-95 97v56h248q123 0 183.5 -58.5zM160 43.5q9 14.5 9 37.5
q0 46 -16.5 75.5t-41.5 29.5q-14 0 -23 -15.5t-9 -39.5q0 -44 16.5 -73t41.5 -29q14 0 23 14.5z" />
    <glyph glyph-name="uni0E27" unicode="&#xe27;" horiz-adv-x="505" 
d="M379 521q54 -46 54 -131v-262q0 -65 -37.5 -101.5t-103.5 -36.5q-44 0 -82 17.5t-60.5 46.5t-22.5 63q0 32 21 51t56 19q33 0 64.5 -19t51 -50t19.5 -63q0 -6 -1 -9q28 19 28 86v258q0 61 -37 92t-109 31q-52 0 -91 -17.5t-75 -57.5l-42 40q41 46 92.5 67.5t120.5 21.5
q100 0 154 -46zM291 38.5q9 8.5 9 23.5q0 19 -14.5 40t-36.5 35t-43 14q-18 0 -28.5 -9t-10.5 -25q0 -18 15.5 -38.5t39 -34.5t44.5 -14q16 0 25 8.5z" />
    <glyph glyph-name="uni0E28" unicode="&#xe28;" horiz-adv-x="642" 
d="M527 492q33 -42 33 -101v-391h-66v391q0 58 -45.5 90t-127.5 32t-127.5 -32t-45.5 -90v-133q34 42 81.5 67t97.5 25q46 0 73.5 -19t27.5 -51q0 -36 -35 -59.5t-89 -23.5q-44 0 -71.5 17.5t-29.5 46.5q-29 -26 -42 -58t-13 -76v-127h-66v391q0 83 63 129.5t176 46.5
q106 0 168 -41q38 15 44 70h66q-7 -79 -72 -104zM263.5 302.5q-26.5 -15.5 -26.5 -36.5q0 -17 18.5 -27.5t49.5 -10.5q37 0 62 14.5t25 36.5q0 17 -18 28t-47 11q-37 0 -63.5 -15.5z" />
    <glyph glyph-name="uni0E29" unicode="&#xe29;" horiz-adv-x="650" 
d="M566 284v-152q0 -68 -56 -105t-159 -37t-159 37t-56 105v216q-20 -14 -44 -14q-32 0 -52 27t-20 71q0 58 30 96.5t75 38.5q36 0 57 -25t21 -67v-342q0 -42 39 -65.5t109 -23.5t109 23.5t39 65.5v117q-51 -17 -110 -17q-61 0 -95 17t-34 48q0 28 28 47t70 19t70 -18.5
t28 -45.5q0 -16 -14 -30q29 4 57 14v276h67v-232q24 27 37 65h40q-20 -66 -77 -109zM136 401.5q16 29.5 16 69.5q0 28 -9 43t-25 15q-23 0 -39.5 -29t-16.5 -69q0 -28 9.5 -43.5t25.5 -15.5q23 0 39 29.5zM403 274.5q19 10.5 19 25.5q0 14 -18.5 24t-46.5 10
q-26 0 -44.5 -10t-18.5 -24q0 -15 19 -25.5t45 -10.5t45 10.5z" />
    <glyph glyph-name="uni0E2A" unicode="&#xe2a;" horiz-adv-x="605" 
d="M490 495q33 -40 33 -102v-393h-65v298q-13 -7 -32 -11.5t-52 -8.5l-102 -12q-76 -9 -115 -41.5t-39 -85.5q0 -51 34 -79v6q0 40 39.5 68t94.5 28q42 0 67 -19t25 -51q0 -44 -43.5 -73t-109.5 -29q-77 0 -122.5 42t-45.5 113q0 75 48 117.5t146 53.5l107 12q56 5 77 17.5
t23 43.5v4q0 57 -44.5 88.5t-125.5 31.5q-131 0 -199 -82l-39 40q80 96 240 96q103 0 162 -39q33 16 39 68h66q-7 -76 -67 -101zM219 106.5q-30 -19.5 -30 -45.5q0 -17 13 -26t36 -9q39 0 70 20.5t31 45.5q0 16 -13.5 25t-36.5 9q-40 0 -70 -19.5z" />
    <glyph glyph-name="uni0E2B" unicode="&#xe2b;" horiz-adv-x="661" 
d="M572 302v-302h-67v295q0 90 -74 90q-52 0 -106 -44t-91 -117q-17 -33 -22.5 -56.5t-5.5 -62.5v-105h-67v351q-19 -17 -45 -17q-32 0 -51.5 27t-19.5 71q0 58 30 96.5t75 38.5q36 0 57 -25t21 -67v-217q76 133 169 164q-46 24 -46 64q0 35 37 58t94 23t93.5 -23t36.5 -58
q0 -25 -18.5 -44t-50.5 -29q51 -32 51 -111zM139 401.5q16 29.5 16 69.5q0 28 -9 43t-25 15q-23 0 -39.5 -29t-16.5 -69q0 -28 9.5 -43.5t25.5 -15.5q23 0 39 29.5zM400 517q-24 -12 -24 -31t23 -31t61 -12q37 0 60.5 12t23.5 31q0 18 -24.5 30.5t-59.5 12.5q-36 0 -60 -12z
" />
    <glyph glyph-name="uni0E2C" unicode="&#xe2c;" horiz-adv-x="697" 
d="M682 574q-2 -46 -22 -77t-57 -44v-453h-77q-86 68 -159 211q-70 -142 -156 -211h-76v335q-4 -1 -14 -1q-41 0 -69.5 38.5t-28.5 94.5q0 46 21 73t56 27q44 0 73 -40.5t29 -103.5v-356q42 39 87 108.5t79 148.5q34 -81 79.5 -151t88.5 -109v350q-22 -13 -54 -13
q-50 0 -82 21.5t-32 55.5q0 33 32.5 55t81.5 22q44 0 76 -16.5t38 -42.5q17 11 26.5 32t9.5 46h50zM81.5 401q16.5 -29 39.5 -29q16 0 25 15t9 43q0 40 -16.5 69.5t-39.5 29.5q-16 0 -25 -15t-9 -43q0 -41 16.5 -70zM537.5 448q21.5 12 21.5 30q0 19 -21.5 30.5t-55.5 11.5
q-32 0 -53 -11.5t-21 -29.5q0 -19 21.5 -31t54.5 -12q32 0 53.5 12z" />
    <glyph glyph-name="loChulathai.short" horiz-adv-x="697" 
d="M682 574q-2 -46 -22 -77t-57 -44v-453h-77q-86 68 -159 211q-70 -142 -156 -211h-76v335q-4 -1 -14 -1q-41 0 -69.5 38.5t-28.5 94.5q0 46 21 73t56 27q44 0 73 -40.5t29 -103.5v-356q42 39 87 108.5t79 148.5q34 -81 79.5 -151t88.5 -109v350q-22 -13 -54 -13
q-50 0 -82 21.5t-32 55.5q0 33 32.5 55t81.5 22q44 0 76 -16.5t38 -42.5q17 11 26.5 32t9.5 46h50zM81.5 401q16.5 -29 39.5 -29q16 0 25 15t9 43q0 40 -16.5 69.5t-39.5 29.5q-16 0 -25 -15t-9 -43q0 -41 16.5 -70zM537.5 448q21.5 12 21.5 30q0 19 -21.5 30.5t-55.5 11.5
q-32 0 -53 -11.5t-21 -29.5q0 -19 21.5 -31t54.5 -12q32 0 53.5 12z" />
    <glyph glyph-name="uni0E2D" unicode="&#xe2d;" horiz-adv-x="597" 
d="M461.5 522.5q63.5 -44.5 63.5 -126.5v-249q0 -73 -63 -115t-172 -42q-111 0 -171.5 46.5t-60.5 131.5q0 56 28 103t76 74.5t104 27.5q41 0 64.5 -17.5t23.5 -48.5q0 -28 -18.5 -51t-50.5 -36.5t-70 -13.5q-66 0 -78 43q-19 -31 -19 -74q0 -131 166 -131q80 0 127 28
t47 75v249q0 56 -46.5 86.5t-133.5 30.5q-125 0 -191 -67l-37 41q75 80 232 80q116 0 179.5 -44.5zM196.5 319.5q-29.5 -19.5 -29.5 -44.5q0 -16 13 -25t35 -9q38 0 69.5 19.5t31.5 44.5q0 17 -13 25.5t-38 8.5q-39 0 -68.5 -19.5z" />
    <glyph glyph-name="uni0E2E" unicode="&#xe2e;" horiz-adv-x="589" 
d="M499 474q18 -28 18 -62v-265q0 -73 -63 -115t-173 -42q-109 0 -170 43t-61 119q0 50 28.5 93.5t76.5 69.5t103 26q41 0 64.5 -17.5t23.5 -48.5q0 -27 -19 -49.5t-51 -36t-69 -13.5q-32 0 -52 11.5t-25 32.5q-20 -28 -20 -63q0 -55 42.5 -84t122.5 -29t127.5 28t47.5 75
v265q0 12 -3 22q-73 -42 -185 -42q-89 0 -145.5 23.5t-56.5 61.5q0 41 53.5 65.5t141.5 24.5q64 0 116.5 -14t87.5 -39q20 31 20 67h65q-3 -62 -45 -107zM423 477q-24 24 -67 36.5t-101 12.5q-62 0 -100 -13t-38 -34q0 -20 38.5 -33.5t97.5 -13.5q108 0 170 45zM188.5 288.5
q-29.5 -19.5 -29.5 -44.5q0 -16 12.5 -25.5t35.5 -9.5q39 0 70.5 20t31.5 45q0 16 -13.5 25t-38.5 9q-39 0 -68.5 -19.5z" />
    <glyph glyph-name="uni0E30" unicode="&#xe30;" horiz-adv-x="455" 
d="M85 368q-38 20 -38 57q0 34 31 55.5t78 21.5q46 0 77 -21.5t31 -53.5q0 -19 -12 -34q41 8 65.5 36.5t30.5 74.5h62q-7 -74 -64.5 -115t-154.5 -41q-68 0 -106 20zM107 455.5q-20 -11.5 -20 -28.5t20 -28.5t48 -11.5q29 0 49 11.5t20 28.5t-20 28.5t-49 11.5
q-28 0 -48 -11.5zM317 135.5q24 28.5 31 74.5h62q-7 -73 -65 -114.5t-155 -41.5q-68 0 -105.5 20t-37.5 57q0 34 31 56t78 22q46 0 77 -22t31 -54q0 -19 -12 -34q41 8 65 36.5zM204 105q20 11 20 28t-19.5 28.5t-49.5 11.5q-29 0 -48.5 -11.5t-19.5 -28.5q0 -16 19.5 -27.5
t48.5 -11.5t49 11z" />
    <glyph glyph-name="uni0E32" unicode="&#xe32;" horiz-adv-x="469" 
d="M330 390q0 59 -32.5 91t-93.5 32q-43 0 -79.5 -18t-72.5 -57l-42 40q42 46 89.5 67.5t106.5 21.5q91 0 141 -46.5t50 -130.5v-390h-67v390z" />
    <glyph glyph-name="uni0E33" unicode="&#xe33;" horiz-adv-x="469" 
d="M-186.5 675.5q-27.5 26.5 -27.5 66.5t27.5 66t68.5 26q42 0 69.5 -26t27.5 -66t-27.5 -66.5t-69.5 -26.5q-41 0 -68.5 26.5zM-79 702.5q15 15.5 15 39.5t-15.5 39t-38.5 15t-38 -15.5t-15 -38.5q0 -24 15 -39.5t38 -15.5q24 0 39 15.5zM330 390q0 59 -32.5 91t-93.5 32
q-43 0 -79.5 -18t-72.5 -57l-42 40q42 46 89.5 67.5t106.5 21.5q91 0 141 -46.5t50 -130.5v-390h-67v390z" />
    <glyph glyph-name="uni0E40" unicode="&#xe40;" horiz-adv-x="287" 
d="M244 195.5q20 -27.5 20 -71.5q0 -58 -30 -96t-75 -38q-36 0 -56.5 24.5t-20.5 67.5v478h67v-351q20 14 43 14q32 0 52 -27.5zM205.5 57q16.5 29 16.5 69q0 28 -9 43.5t-25 15.5q-23 0 -39.5 -30t-16.5 -70q0 -27 9 -42t25 -15q23 0 39.5 29z" />
    </font>
</defs>
</svg>
